Torrent Search | Torrent Meta Search | Widgets

Borstal (2017) HDRip XviD ETRG

       
706.24 Mb
found 2 months ago
▲ seeders: 47 ▼ leechers:9
your vote:
real:
fake:
download torrent

Borstal (2017) HDRip XviD ETRG torrent

Information about the torrent Borstal (2017) HDRip XviD ETRG. Seeders, leechers and torrent status is updated several times per day.

If you want to download the hdrip torrent Borstal (2017) HDRip XviD ETRG you will need a torrent client.

Torrent Metasearch.

Torrent verified by thepiratebay.se.

tracker
seeders
leechers
↓ torrent client compatible list

↑ hide torrent client compatible list

torrent contents

Borstal.2017.HDRip.XViD-ETRG torrent

Borstal.2017.HDRip.XViD-ETRG
Borstal.2017.HDRip.XViD-ETRG.avi699.59 Mb torrent search
Borstal.nfo7.5 Kb torrent search
ETRG.mp41.45 Mb torrent search
Torrent Downloaded From ExtraTorrent.cc.txt338 bytes torrent search
sample.avi5.2 Mb torrent search

Sample info:
Duration: 01:27:07.56, start: 0.000000, bitrate: 1122 kb/s
Stream #0:0: Video: mpeg4 (Advanced Simple Profile) (XVID / 0x44495658), yuv420p, 640x272 [SAR 1:1 DAR 40:17], 984 kb/s, 25 fps, 25 tbr, 25 tbn, 25 tbc
Stream #0:1: Audio: mp3 (U[0][0][0] / 0x0055), 48000 Hz, stereo, s16p, 128 kb/s
screenshots
Images are auto generated please report any inapropriate images
 

related search cloud

 borstal  etrg  xvid  hdrip  sample  extratorrent  torrent  downloaded