Torrent Search | Torrent Meta Search | Widgets

Hairy Natural Girls 2

       
1.1 Gb
found 4 years ago
▲ seeders: 1 ▼ leechers:1
your vote:
real:
fake:
download torrent

Hairy Natural Girls 2 torrent

Information about the torrent Hairy Natural Girls 2. Seeders, leechers and torrent status is updated several times per day.

If you want to download the video torrent Hairy Natural Girls 2 you will need a torrent client.

Torrent Metasearch.

.

tracker
seeders
leechers
↓ torrent client compatible list

↑ hide torrent client compatible list

comments/reviews
140
torrent contents

Hairy Natural Girls 2.avi torrent

Hairy Natural Girls 2.avi1.1 Gb torrent search

Sample info:
Duration: 01:36:10.23, start: 0.000000, bitrate: 1637 kb/s
Stream #0.0: Video: mpeg4 (Simple Profile), yuv420p, 640x480 [PAR 1:1 DAR 4:3], 30 tbr, 30 tbn, 30 tbc
Stream #0.1: Audio: mp3, 44100 Hz, stereo, s16, 128 kb/s
screenshots
Images are auto generated please report any inapropriate images
 

related search cloud

 girls  natural  hairy