Torrent Search | Torrent Meta Search | Widgets

Hairy Natural Girls 2

1.1 Gb
found 2 years ago
▲ seeders: 2 ▼ leechers:0
your vote:
real:
fake:
Direct Download
THANK YOU
download torrent
  Direct Downloadsponsored

Hairy Natural Girls 2 torrent

Information about the torrent Hairy Natural Girls 2. Seeders, leechers and torrent status is updated several times per day.

If you want to download the video torrent Hairy Natural Girls 2 you will need a torrent client.

Torrent Metasearch.

tracker
seeders
leechers
↓ torrent client compatible list

↑ hide torrent client compatible list

Help torrentproject.se to stay alive .
Add links of torrentproject.se in your favorite forum, blog, youtube, facebook, twitter etc.
reviews
140
torrent contents

Hairy Natural Girls 2.avi torrent

Hairy Natural Girls 2.avi1.1 Gb torrent search

Sample info:
Duration: 01:36:10.23, start: 0.000000, bitrate: 1637 kb/s
Stream #0.0: Video: mpeg4 (Simple Profile), yuv420p, 640x480 [PAR 1:1 DAR 4:3], 30 tbr, 30 tbn, 30 tbc
Stream #0.1: Audio: mp3, 44100 Hz, stereo, s16, 128 kb/s
screenshots
Hairy Natural Girls 2 torrent screenshot 4A3B466A2E2696AC9D6027F81697704755F693C9 Hairy Natural Girls 2 torrent screenshot 4a3b466a2e2696ac9d6027f81697704755f693c9 torrent Hairy Natural Girls 2
Hairy Natural Girls 2.avi images are auto generated please report any inapropriate images
you may be interested in these torrents seeders leechers size found
My Hairy & Natural 3 Way Babe     1 0 752.9 Mb 2 years ago

My Hairy & Natural 3 Way Babe.wmv


Hairy Natural Girls 2 0 1 1.1 Gb 2 years ago

Hairy Natural Girls 2.avi


Hairy natural redhead bush 0 1 44.23 Mb 4 years ago

Hairy natural redhead bush.wmv


 

related search cloud

 girls  natural  hairy