Torrent Search | Torrent Meta Search | Widgets

La Cité Des Ombres FRENCH DVDRip XviD DVDFR

710.47 Mb
found 6 years ago
▲ seeders: 0 ▼ leechers:1
your vote:
real:
fake:
download torrent

La Cité Des Ombres FRENCH DVDRip XviD DVDFR torrent

Information about the torrent La Cité Des Ombres FRENCH DVDRip XviD DVDFR. Seeders, leechers and torrent status is updated everyday.

If you want to download the dvdrip torrent La Cité Des Ombres FRENCH DVDRip XviD DVDFR you will need a torrent client.

Torrent Metasearch.

No trackers with seeders or leechers have been found, this doesn't mean that the torrent La Cité Des Ombres FRENCH DVDRip XviD DVDFR is dead
comments/reviews
140
torrent contents

La.Cité.Des.Ombres.FRENCH.DVDRip.XViD-DVDFR torrent

La.Cité.Des.Ombres.FRENCH.DVDRip.XViD-DVDFR
La.Cité.Des.Ombres.FRENCH.DVDRip.XViD-DVDFR.avi710.46 Mb torrent search
DVDFR.nfo13.4 Kb torrent search

Sample info:
Duration: 01:17:57.48, start: 0.000000, bitrate: 1274 kb/s
Stream #0.0: Video: mpeg4, yuv420p, 720x400 [PAR 1:1 DAR 9:5], 25.00 tb(r)
Stream #0.1: Audio: mp3, 48000 Hz, stereo, 128 kb/s
screenshots
Images are auto generated please report any inapropriate images
 

related search cloud

 dvdfr  xvid  dvdrip  french  ombres