Torrent Search | Torrent Meta Search | Widgets

Le regole dell attrazione

1.37 Gb
found 4 years ago
▲ seeders: 5 ▼ leechers:2
your vote:
real:
fake:
Direct Download
THANK YOU
download torrent
  Direct Downloadsponsored

Le regole dell attrazione torrent

Information about the torrent Le regole dell attrazione. Seeders, leechers and torrent status is updated several times per day.

If you want to download the video torrent Le regole dell attrazione you will need a torrent client.

Torrent Metasearch.

tracker
seeders
leechers
↓ torrent client compatible list

↑ hide torrent client compatible list

Help torrentproject.se to stay alive .
Add links of torrentproject.se in your favorite forum, blog, youtube, facebook, twitter etc.
reviews
140
torrent contents

Le regole dell attrazione torrent

Le regole dell'attrazione
Le regole dellattrazione 1°tempo.avi699.27 Mb torrent search
Le regole dellattrazione 2°tempo.avi699.41 Mb torrent search

Sample info:
Duration: 00:50:23.28, start: 0.000000, bitrate: 1940 kb/s
Stream #0.0: Video: mpeg4 (Advanced Simple Profile), yuv420p, 592x320 [PAR 1:1 DAR 37:20], 25 tbr, 25 tbn, 25 tbc
Stream #0.1: Audio: ac3, 48000 Hz, 5.1, s16, 448 kb/s
screenshots
Le regole dell attrazione torrent screenshot 4AD48D5A0827DDF97C0EE73DDA97A31A09A637EA Le regole dell attrazione torrent screenshot 4ad48d5a0827ddf97c0ee73dda97a31a09a637ea torrent Le regole dell attrazione
Le regole dell attrazione images are auto generated please report any inapropriate images
 

related search cloud

 regole  tempo  dellattrazione  attrazione  dell