Torrent Search | Torrent Meta Search | Widgets

KTDS 500

1.32 Gb
found 4 years ago
▲ seeders: 0 ▼ leechers:1
your vote:
real:
fake:
download torrent

KTDS 500 torrent

Information about the torrent KTDS 500. Seeders, leechers and torrent status is updated everyday.

If you want to download the video torrent KTDS 500 you will need a torrent client.

Torrent Metasearch.

comments/reviews
140
torrent contents

KTDS-500 torrent

KTDS-500
JAV Torrent 掲示板.URL210 bytes torrent search
KTDS-500.avi1.32 Gb torrent search
KTDS-500.jpg89.59 Kb torrent search
KTDS-500B.jpg301.05 Kb torrent search
[email protected]7 bytes torrent search
[email protected]7 bytes torrent search
[email protected]7 bytes torrent search
[email protected]33 bytes torrent search
[email protected]113 bytes torrent search

Sample info:
Duration: 01:59:19.77, start: 0.000000, bitrate: 1579 kb/s
Stream #0.0: Video: h264 (High), yuv420p, 800x450 [PAR 1:1 DAR 16:9], 30 fps, 30 tbr, 30 tbn, 60 tbc
Stream #0.1: Audio: mp3, 44100 Hz, stereo, s16, 64 kb/s
screenshots
Images are auto generated please report any inapropriate images
 

related search cloud

 bearbbs  ktds  mimip  fastzone  torrent