Torrent Search | Torrent Meta Search | Widgets

KTDS 500

1.32 Gb
found 2 years ago
▲ seeders: 1 ▼ leechers:4
your vote:
real:
fake:
Direct Download
THANK YOU
download torrent
  Direct Downloadsponsored

KTDS 500 torrent

Information about the torrent KTDS 500. Seeders, leechers and torrent status is updated everyday.

If you want to download the video torrent KTDS 500 you will need a torrent client.

Torrent Metasearch.

tracker
seeders
leechers
↓ torrent client compatible list

↑ hide torrent client compatible list

Help torrentproject.se to stay alive .
Add links of torrentproject.se in your favorite forum, blog, youtube, facebook, twitter etc.
reviews
140
torrent contents

KTDS-500 torrent

KTDS-500
JAV Torrent 掲示板.URL210 bytes torrent search
KTDS-500.avi1.32 Gb torrent search
KTDS-500.jpg89.59 Kb torrent search
KTDS-500B.jpg301.05 Kb torrent search
bearbbs@18P2P.txt7 bytes torrent search
bearbbs@FastZone.ORG.txt7 bytes torrent search
bearbbs@www.mimip2p.net.txt7 bytes torrent search
bearbbs@公仔箱論壇.txt33 bytes torrent search
bearbbs@公仔箱論壇.url113 bytes torrent search

Sample info:
Duration: 01:59:19.77, start: 0.000000, bitrate: 1579 kb/s
Stream #0.0: Video: h264 (High), yuv420p, 800x450 [PAR 1:1 DAR 16:9], 30 fps, 30 tbr, 30 tbn, 60 tbc
Stream #0.1: Audio: mp3, 44100 Hz, stereo, s16, 64 kb/s
screenshots
KTDS 500 torrent screenshot 4B262C0DE3265373028E9BABF2D7DDD890D43BC6 KTDS 500 torrent screenshot 4b262c0de3265373028e9babf2d7ddd890d43bc6 torrent KTDS 500
KTDS-500 images are auto generated please report any inapropriate images
you may be interested in these torrents seeders leechers size found
ktds 500 3 4 1.99 Gb 2 years ago

ktds-500.wmv


ktds 500 0 1 1.99 Gb 2 years ago

ktds-500.wmv


 

related search cloud

 bearbbs  ktds  mimip  fastzone  torrent