Torrent Search | Torrent Meta Search | Widgets

Haven Season 1

4.84 Gb
found 3 years ago
▲ seeders: 8 ▼ leechers:3
your vote:
real:
fake:
Direct Download
THANK YOU
download torrent
  Direct Downloadsponsored

Haven Season 1 torrent

Information about the torrent Haven Season 1. Seeders, leechers and torrent status is updated everyday.

If you want to download the tv torrent Haven Season 1 you will need a torrent client.

Torrent Metasearch.

tracker
seeders
leechers
↓ torrent client compatible list

↑ hide torrent client compatible list

Help torrentproject.se to stay alive .
Add links of torrentproject.se in your favorite forum, blog, youtube, facebook, twitter etc.
reviews
140
torrent contents

Haven - Season 1 torrent

Haven - Season 1
 Eng Sub
Haven_s01e01_«Welcome To Haven».eng.sub.srt46.85 Kb torrent search
Haven_s01e02_«Butterfly».eng.sub.srt45.42 Kb torrent search
Haven_s01e03_«Harmony».eng.sub.srt43.85 Kb torrent search
Haven_s01e04_«Consumed».eng.sub.srt57.78 Kb torrent search
Haven_s01e05_«Ball and Chain».eng.sub.srt57.44 Kb torrent search
Haven_s01e06_«Fur».eng.sub.srt57.1 Kb torrent search
Haven_s01e07_«Sketchy».eng.sub.srt56.62 Kb torrent search
Haven_s01e08_«Ain't No Sunshine».eng.sub.srt56.44 Kb torrent search
Haven_s01e09_«As You Were».eng.sub.srt59.22 Kb torrent search
Haven_s01e10 _«The Hand You re Dealt».eng.sub.srt53.83 Kb torrent search
Haven_s01e11_«The Trial Of Audrey Parker».eng.sub.srt62.47 Kb torrent search
Haven_s01e12_«Resurfacing».eng.sub.srt53.16 Kb torrent search
Haven_s01e13_«Spiral».eng.sub.srt55.03 Kb torrent search

Haven - Season 1
Haven_s01e01_WEB-DLRip.«Welcome.To.Haven».[Kubik.v.Kube].rus.avi431.56 Mb torrent search
Haven_s01e02_WEB-DLRip.«Butterfly».[Kubik.v.Kube].rus.avi363.73 Mb torrent search
Haven_s01e03_WEB-DLRip.«Harmony».[Kubik.v.Kube].rus.avi381.36 Mb torrent search
Haven_s01e04_WEB-DLRip.«Consumed».[Kubik.v.Kube].rus.avi391.86 Mb torrent search
Haven_s01e05_WEB-DLRip.«Ball.and.Chain».[Kubik.v.Kube].rus.avi366.19 Mb torrent search
Haven_s01e06_WEB-DLRip.«Fur».[Kubik.v.Kube].rus.avi373.53 Mb torrent search
Haven_s01e07_WEB-DLRip.«Sketchy».[Kubik.v.Kube].rus.avi395.71 Mb torrent search
Haven_s01e08_WEB-DLRip.«Ain't.No.Sunshine».[Kubik.v.Kube].rus.avi360.85 Mb torrent search
Haven_s01e09_WEB-DLRip.«As.You.Were».[Kubik.v.Kube].rus.avi368.04 Mb torrent search
Haven_s01e10_WEB-DLRip.«The.Hand.You.re.Dealt».[Kubik.v.Kube].rus.avi368.34 Mb torrent search
0f

Sample info:
Duration: 00:43:36.95, start: 0.000000, bitrate: 1383 kb/s
Stream #0.0: Video: mpeg4, yuv420p, 640x368 [PAR 1:1 DAR 40:23], 23.98 fps, 23.98 tbr, 23.98 tbn, 2997 tbc
Stream #0.1: Audio: mp3, 44100 Hz, 2 channels, s16, 192 kb/s
screenshots
Haven Season 1 torrent screenshot 4DA048E256535A8B1F9D73F692B62A2CEE28ABFA Haven Season 1 torrent screenshot 4da048e256535a8b1f9d73f692b62a2cee28abfa torrent Haven Season 1
Haven - Season 1 images are auto generated please report any inapropriate images
 

related search cloud

 haven  kubik  dlrip  kube  sunshine  hand  dealt  sketchy  were  chain