Torrent Search | Torrent Meta Search | Widgets

mariana ntouvli o viasmos tis camarieras

1023.41 Mb
found 3 years ago
▲ seeders: 5 ▼ leechers:0
your vote:
real:
fake:
Direct Download
THANK YOU
download torrent
  Direct Downloadsponsored

mariana ntouvli o viasmos tis camarieras torrent

Information about the torrent mariana ntouvli o viasmos tis camarieras. Seeders, leechers and torrent status is updated everyday.

If you want to download the video torrent mariana ntouvli o viasmos tis camarieras you will need a torrent client.

Torrent Metasearch.

tracker
seeders
leechers
↓ torrent client compatible list

↑ hide torrent client compatible list

Help torrentproject.se to stay alive .
Add links of torrentproject.se in your favorite forum, blog, youtube, facebook, twitter etc.
reviews
140
torrent contents

mariana ntouvli o viasmos tis camarieras torrent

mariana ntouvli o viasmos tis camarieras
mariana ntouvli.avi1023.35 Mb torrent search
screen.png63.35 Kb torrent search

Sample info:
Duration: 01:55:21.36, start: 0.000000, bitrate: 1240 kb/s
Stream #0.0: Video: mpeg4, yuv420p, 720x576 [PAR 1:1 DAR 5:4], 25 tbr, 25 tbn, 25 tbc
Stream #0.1: Audio: mp3, 48000 Hz, 2 channels, s16, 128 kb/s
screenshots
mariana ntouvli o viasmos torrent screenshot 4DE8C565F06791A558ED4B4451BB7CDC855AAF43 mariana ntouvli o viasmos  torrent screenshot 4de8c565f06791a558ed4b4451bb7cdc855aaf43 torrent mariana ntouvli o viasmos
mariana ntouvli o viasmos tis camarieras images are auto generated please report any inapropriate images
you may be interested in these torrents seeders leechers size found
enjoy masturbation 1 1 6.43 Gb 3 years ago

mariana ntouvli.avi H.Filh.Ths.Korhs.Moy.avi Athlitries Sex kai Dopa.avi gat


Ntouvli 2o DvD 0 1 1023.41 Mb 3 years ago

mariana ntouvli.avi screen.png


 

related search cloud

 mariana  ntouvli  screen  viasmos  camarieras