Torrent Search | Torrent Meta Search | Widgets

Nude TaiChi Naked Tai Chi

       
528.3 Mb
found 6 years ago
▲ seeders: 0 ▼ leechers:1
your vote:
real:
fake:
download torrent

Nude TaiChi Naked Tai Chi torrent

Information about the torrent Nude TaiChi Naked Tai Chi. Seeders, leechers and torrent status is updated several times per day.

If you want to download the video torrent Nude TaiChi Naked Tai Chi you will need a torrent client.

Torrent Metasearch.

Torrent verified by kat.ph.

tracker
seeders
leechers
comments/reviews
140
torrent contents

Nude TaiChi - Naked Tai Chi torrent

Nude TaiChi - Naked Tai Chi
Nude TaiChi - Naked Tai Chi - v1.avi299.04 Mb torrent search
Nude TaiChi - Naked Tai Chi - v2.avi228.98 Mb torrent search
Nude TaiChi - Naked Tai Chi.jpg289.36 Kb torrent search

Sample info:
Duration: 00:29:15.65, start: 0.000000, bitrate: 1428 kb/s
Stream #0.0: Video: msmpeg4, yuv420p, 720x536, 29.97 fps, 29.97 tbr, 29.97 tbn, 29.97 tbc
Stream #0.1: Audio: mp3, 44100 Hz, stereo, s16, 192 kb/s
title	: Audio Stream
screenshots
Images are auto generated please report any inapropriate images
 

related search cloud

 naked  taichi  nude