Torrent Search | Torrent Meta Search | Widgets

Saw (2004) 1080P Full HD BluRay Dual Audio 5 1Eng+Hin ~ Ashish7 wall e

       
3.18 Gb
found 2 years ago
▲ seeders: 1 ▼ leechers:3
your vote:
real:
fake:
Direct Download
THANK YOU
download torrent
  Direct Downloadsponsored

Saw (2004) 1080P Full HD BluRay Dual Audio 5 1Eng+Hin ~ Ashish7 wall e torrent

Information about the torrent Saw (2004) 1080P Full HD BluRay Dual Audio 5 1Eng+Hin ~ Ashish7 wall e. A torrent file stores metadata that can be used from a BitTorrent client.

If you want to download the hdrip torrent Saw (2004) 1080P Full HD BluRay Dual Audio 5 1Eng+Hin ~ Ashish7 wall e you will need a torrent client.

Torrent Metasearch.

Torrent verified by kat.ph.

tracker
seeders
leechers
↓ torrent client compatible list

↑ hide torrent client compatible list

Help torrentproject.se to stay alive .
Add links of torrentproject.se in your favorite forum, blog, youtube, facebook, twitter etc.
reviews
140
torrent contents

Saw 2004 1080P Full HD BluRay Dual Audio [5.1Eng+Hin] ~ Ashish7(wall.e) torrent

Saw 2004 1080P Full HD BluRay Dual Audio [5.1Eng+Hin] ~ Ashish7(wall.e)
 Sample
Sample.mkv17.93 Mb torrent search

Saw 2004 1080P Full HD BluRay Dual Audio [5.1Eng+Hin] ~ Ashish7(wall.e)
 Screenshots
1.png1.53 Mb torrent search
2.png2.87 Mb torrent search
3.png2.68 Mb torrent search
4.png3.75 Mb torrent search
5.png2.44 Mb torrent search
6.png2.35 Mb torrent search
7.png3.13 Mb torrent search

Saw 2004 1080P Full HD BluRay Dual Audio [5.1Eng+Hin] ~ Ashish7(wall.e)
Ashish7(wall.e).jpg922.94 Kb torrent search
Cover.jpg830.38 Kb torrent search
Read This First.txt257 bytes torrent search
Saw 2004 1080P Full HD BluRay Dual Audio [5.1Eng+Hin] ~ Ashish7(wall.e).mkv3.15 Gb torrent search
Torrent Downloaded From ExtraTorrent.com.txt353 bytes torrent search

Sample info:
Duration: 01:47:44.59, start: 0.000000, bitrate: 256 kb/s
Stream #0.0: Video: h264 (High), yuv420p, 1920x1080 [PAR 1:1 DAR 16:9], 23.98 fps, 23.98 tbr, 1k tbn, 47.95 tbc (default)
title	: 1080P Full HD BluRay ~ Ashish7(wall.e)
Stream #0.1(eng): Audio: aac, 48000 Hz, 5.1, s16
title	: 5.1 English Audio ~ Ashish7(wall.e)
Stream #0.2(hin): Audio: mp3, 48000 Hz, stereo, s16, 256 kb/s
title	: Hindi Audio ~ Ashish7(wall.e)
screenshots
Saw 2004 1080P Full torrent screenshot 50053EB9596712235B5148BC6FD919ECCBE7DA2F Saw 2004 1080P Full  torrent screenshot 50053eb9596712235b5148bc6fd919eccbe7da2f torrent Saw 2004 1080P Full
Saw 2004 1080P Full HD BluRay Dual Audio [5.1Eng+Hin] ~ Ashish7(wall.e) images are auto generated please report any inapropriate images
 

related search cloud

 ashish  wall  audio  dual  bluray  full  sample  downloaded  extratorrent  torrent