Torrent Search | Torrent Meta Search | Widgets

Ginger Banks

5.39 Gb
found 2 years ago
▲ seeders: 25 ▼ leechers:4
your vote:
real:
fake:
Direct Download
THANK YOU
download torrent
  Direct Downloadsponsored

Ginger Banks torrent

Information about the torrent Ginger Banks. Seeders, leechers and torrent status is updated everyday.

If you want to download the video torrent Ginger Banks you will need a torrent client.

Torrent Metasearch.

tracker
seeders
leechers
↓ torrent client compatible list

↑ hide torrent client compatible list

Help torrentproject.se to stay alive .
Add links of torrentproject.se in your favorite forum, blog, youtube, facebook, twitter etc.
reviews
140
torrent contents

Ginger_Banks torrent

Ginger_Banks
 Ginger_Banks 1
GB at home3.avi185.46 Mb torrent search
GB 2.avi84.62 Mb torrent search
GB July15-Part3.wmv77.49 Mb torrent search
GB 12-21-2011.avi67.26 Mb torrent search
GB 1b.avi58.32 Mb torrent search
GB 11-13-2011-part1of2.avi56.29 Mb torrent search
GB July15-Part1.wmv53.06 Mb torrent search
GB Green Dress.flv50.54 Mb torrent search
GB July14.wmv49.11 Mb torrent search
GB July16-Part1.mp447.6 Mb torrent search
GB 3.mpeg39.63 Mb torrent search
GB 2.mpeg37.17 Mb torrent search
GB Bathroom.avi36.88 Mb torrent search
GB 11-13-2011-part2of2.avi35.44 Mb torrent search
G_B.flv32.02 Mb torrent search
GB bluedildo.avi31.19 Mb torrent search
GB whitedress.mpeg29.76 Mb torrent search
GB 11.mpeg28.25 Mb torrent search
GB 13.mpeg27.92 Mb torrent search
GB at home1.avi23.12 Mb torrent search
GB Bathroom2.avi22.42 Mb torrent search
GB 17.mpeg22.25 Mb torrent search
GB 12.mpeg19.42 Mb torrent search
GB 9.mpeg19.12 Mb torrent search
GB whitedress2.mp418.74 Mb torrent search
GB 15.mpeg18.34 Mb torrent search
GB July16-Part2.mp417.2 Mb torrent search
GB 0.mpeg15.15 Mb torrent search
GB at home2.avi14.29 Mb torrent search
GB 14.mpeg14.29 Mb torrent search
GB 16.mpeg12.35 Mb torrent search
GB redtank.mp412.05 Mb torrent search
GB 1a.avi11.2 Mb torrent search
GB 10.mpeg10.87 Mb torrent search
GB 5.mpeg10.56 Mb torrent search
GB 4.mpeg10.09 Mb torrent search
GB 7.mpeg9.19 Mb torrent search
GB Panty Flash.avi8.48 Mb torrent search
GB July15-Part2.wmv8 Mb torrent search
GB at home4.mpeg4.93 Mb torrent search
GB July16-AtHome.mp44.06 Mb torrent search
GB 1.mpeg3.88 Mb torrent search
GB 8.mpeg3.44 Mb torrent search
GB 6.mpeg3.28 Mb torrent search
GB July16-Part1.mp4.jpg334.84 Kb torrent search
GB July15-Part3.wmv.jpg333.75 Kb torrent search
GB 2.avi.jpg290.62 Kb torrent search
GB July15-Part2.wmv.jpg263.37 Kb torrent search
GB 1b.avi.jpg249.54 Kb torrent search

Sample info:
Duration: 02:52:54.40, start: 0.000000, bitrate: 299 kb/s
Stream #0.0(eng): Video: h264, yuv420p, 320x240 [PAR 1:1 DAR 4:3], 254 kb/s, 20 fps, 20 tbr, 600 tbn, 40 tbc
Stream #0.1(eng): Audio: aac, 22050 Hz, mono, s16, 37 kb/s
screenshots
Ginger Banks torrent screenshot 504999BB4344DC23A332A8FA607EF558F15FF30F Ginger Banks torrent screenshot 504999bb4344dc23a332a8fa607ef558f15ff30f torrent Ginger Banks
Ginger_Banks images are auto generated please report any inapropriate images
 

related search cloud

 part  july  home  whitedre  ginger  bathroom  banks  athome  whitedr  flash