Torrent Search | Torrent Meta Search | Widgets

Gangbang Auditions 26

       
1.05 Gb
found 4 years ago
▲ seeders: 4 ▼ leechers:46
your vote:
real:
fake:
download torrent

Gangbang Auditions 26 torrent

Information about the torrent Gangbang Auditions 26. Seeders, leechers and torrent status is updated everyday.

If you want to download the gang bang torrent Gangbang Auditions 26 you will need a torrent client.

Torrent Metasearch.

.

tracker
seeders
leechers
↓ torrent client compatible list

↑ hide torrent client compatible list

comments/reviews
140
torrent contents

Gangbang Auditions 26 torrent

Gangbang Auditions 26
CD 1.mp4555.14 Mb torrent search
CD 2.mp4516.96 Mb torrent search
cover 2.jpg158.85 Kb torrent search
cover 1.jpg96.86 Kb torrent search

Sample info:
Duration: 00:43:31.81, start: 0.000000, bitrate: 1782 kb/s
Stream #0.0	: Video: h264 (High), yuv420p, 720x404 [PAR 2705:2713 DAR 486900:274013], 1671 kb/s, 29.97 fps, 29.97 tbr, 30k tbn, 59.94 tbc
creation_time	: 1970-01-01 00:00:00
Stream #0.1	: Audio: aac, 48000 Hz, stereo, s16, 106 kb/s
creation_time	: 1970-01-01 00:00:00
screenshots
Images are auto generated please report any inapropriate images
 

related search cloud

 cover  auditions  gangbang