Torrent Search | Torrent Meta Search | Widgets

44o ERASITEXNIKO SIRINA MARIA H DIKIGOROS APO THN THESSALONIKH mkv

287.98 Mb
found 1 year ago
▲ seeders: 27 ▼ leechers:2
your vote:
real:
fake:
Direct Download
THANK YOU
download torrent
  Direct Downloadsponsored

44o ERASITEXNIKO SIRINA MARIA H DIKIGOROS APO THN THESSALONIKH mkv torrent

Information about the torrent 44o ERASITEXNIKO SIRINA MARIA H DIKIGOROS APO THN THESSALONIKH mkv. Seeders, leechers and torrent status is updated several times per day.

If you want to download the video torrent 44o ERASITEXNIKO SIRINA MARIA H DIKIGOROS APO THN THESSALONIKH mkv you will need a torrent client.

Torrent Metasearch.

tracker
seeders
leechers
↓ torrent client compatible list

↑ hide torrent client compatible list

Help torrentproject.se to stay alive .
Add links of torrentproject.se in your favorite forum, blog, youtube, facebook, twitter etc.
reviews
anonymous 12 Feb 2014, 09:02:01
GAFHGTJHJHJK
140
torrent contents

44o ERASITEXNIKO SIRINA - MARIA H DIKIGOROS APO THN THESSALONIKH.mkv torrent

44o ERASITEXNIKO SIRINA - MARIA H DIKIGOROS APO THN THESSALONIKH.mkv287.98 Mb torrent search

Sample info:
Duration: 00:30:00.57, start: 0.000000, bitrate: 1341 kb/s
Stream #0:0(eng): Video: h264 (Main), yuv420p, 640x360 [SAR 1:1 DAR 16:9], 25 fps, 25 tbr, 1k tbn, 50 tbc (default)
Stream #0:1: Audio: ac3, 48000 Hz, stereo, s16, 192 kb/s (default)
screenshots
44o ERASITEXNIKO SIRINA MARIA torrent screenshot 50B53D9D30C7EEB52833831B004509F36B00EFB2 44o ERASITEXNIKO SIRINA MARIA  torrent screenshot 50b53d9d30c7eeb52833831b004509f36b00efb2 torrent 44o ERASITEXNIKO SIRINA MARIA
44o ERASITEXNIKO SIRINA - MARIA H DIKIGOROS APO THN THESSALONIKH.mkv images are auto generated please report any inapropriate images
 

related search cloud

 thealonikh  dikigoros  maria  sirina  erasitexniko