Torrent Search | Torrent Meta Search | Widgets

I Was Tight Yesterday 5

963.85 Mb
found 1 year ago
▲ seeders: 2 ▼ leechers:3
your vote:
real:
fake:
Direct Download
THANK YOU
download torrent
  Direct Downloadsponsored

I Was Tight Yesterday 5 torrent

Information about the torrent I Was Tight Yesterday 5. Seeders, leechers and torrent status is updated several times per day.

If you want to download the video torrent I Was Tight Yesterday 5 you will need a torrent client.

Torrent Metasearch.

tracker
seeders
leechers
↓ torrent client compatible list

↑ hide torrent client compatible list

Help torrentproject.se to stay alive .
Add links of torrentproject.se in your favorite forum, blog, youtube, facebook, twitter etc.
reviews
140
torrent contents

I Was Tight Yesterday 5.avi torrent

I Was Tight Yesterday 5.avi963.85 Mb torrent search

Sample info:
Duration: 02:03:54.56, start: 0.000000, bitrate: 1087 kb/s
Stream #0:0: Video: mpeg4 (Simple Profile) (XVID / 0x44495658), yuv420p, 480x352 [SAR 1:1 DAR 15:11], 25 tbr, 25 tbn, 25 tbc
Stream #0:1: Audio: mp3 (U[0][0][0] / 0x0055), 22050 Hz, stereo, s16, 96 kb/s
screenshots
I Was Tight Yesterday torrent screenshot 517AE98BDE300AF5AA7899A54FC03F4E6AC0E6D9 I Was Tight Yesterday  torrent screenshot 517ae98bde300af5aa7899a54fc03f4e6ac0e6d9 torrent I Was Tight Yesterday
I Was Tight Yesterday 5.avi images are auto generated please report any inapropriate images
 

related search cloud

 yesterday  tight