Torrent Search | Torrent Meta Search | Widgets

Star Wars Episode V The Empire Strikes Back 1980 TUSAHD

       
1.22 Gb
found 3 years ago
▲ seeders: 145 ▼ leechers:23
your vote:
real:
fake:
Direct Download
THANK YOU
download torrent
  Direct Downloadsponsored

Star Wars Episode V The Empire Strikes Back 1980 TUSAHD torrent

Information about the torrent Star Wars Episode V The Empire Strikes Back 1980 TUSAHD. Seeders, leechers and torrent status is updated several times per day.

If you want to download the hdrip torrent Star Wars Episode V The Empire Strikes Back 1980 TUSAHD you will need a torrent client.

Torrent Metasearch.

Torrent verified by kat.ph.

tracker
seeders
leechers
↓ torrent client compatible list

↑ hide torrent client compatible list

Help torrentproject.se to stay alive .
Add links of torrentproject.se in your favorite forum, blog, youtube, facebook, twitter etc.
reviews
140
torrent contents

Star.Wars.Episode.V.The.Empire.Strikes.Back.1980-TUSAHD torrent

Star.Wars.Episode.V.The.Empire.Strikes.Back.1980-TUSAHD
Star.Wars.Episode.V.The.Empire.Strikes.Back.1980.1080p.Bluray.x264.anoXmous.mp41.16 Gb torrent search
Star.Wars.Episode.V.The.Empire.Strikes.Back.1980.1080p.Bluray.x264.anoXmous_track4_eng.sub8.56 Mb torrent search
Star.Wars.Episode.V.The.Empire.Strikes.Back.1980.1080p.Bluray.x264.anoXmous_track5_eng.sub8.56 Mb torrent search
Star.Wars.Episode.V.The.Empire.Strikes.Back.1980.1080p.Bluray.x264.anoXmous_track12_por.sub7.18 Mb torrent search
Star.Wars.Episode.V.The.Empire.Strikes.Back.1980.1080p.Bluray.x264.anoXmous_track11_fre.sub6.87 Mb torrent search
Star.Wars.Episode.V.The.Empire.Strikes.Back.1980.1080p.Bluray.x264.anoXmous_track13_spa.sub6.87 Mb torrent search
Star.Wars.Episode.V.The.Empire.Strikes.Back.1980.1080p.Bluray.x264.anoXmous_track6_swe.sub5.79 Mb torrent search
Star.Wars.Episode.V.The.Empire.Strikes.Back.1980.1080p.Bluray.x264.anoXmous_track9_dan.sub5.73 Mb torrent search
Star.Wars.Episode.V.The.Empire.Strikes.Back.1980.1080p.Bluray.x264.anoXmous_track10_dut.sub5.59 Mb torrent search
Star.Wars.Episode.V.The.Empire.Strikes.Back.1980.1080p.Bluray.x264.anoXmous_track7_fin.sub5.42 Mb torrent search
Star.Wars.Episode.V.The.Empire.Strikes.Back.1980.1080p.Bluray.x264.anoXmous_track8_nor.sub5.1 Mb torrent search
Star.Wars.Episode.V.The.Empire.Strikes.Back.1980.1080p.Bluray.x264.anoXmous_track4_eng.idx68.17 Kb torrent search
Star.Wars.Episode.V.The.Empire.Strikes.Back.1980.1080p.Bluray.x264.anoXmous_track5_eng.idx68.17 Kb torrent search

Sample info:
Duration: 02:07:21.68, start: 0.000000, bitrate: 1299 kb/s
Stream #0.0	: Video: h264 (High), yuv420p, 1916x816 [PAR 59874:59875 DAR 587:250], 1223 kb/s, 23.98 fps, 23.98 tbr, 24k tbn, 47.95 tbc
creation_time	: 2012-02-17 23:45:23
Stream #0.1	: Audio: aac, 48000 Hz, stereo, s16, 72 kb/s
creation_time	: 2012-02-18 07:30:22
screenshots
Star Wars Episode V torrent screenshot 52727B093169A6119EE1B9BDD28E3672B7034A2F Star Wars Episode V  torrent screenshot 52727b093169a6119ee1b9bdd28e3672b7034a2f torrent Star Wars Episode V
Star.Wars.Episode.V.The.Empire.Strikes.Back.1980-TUSAHD images are auto generated please report any inapropriate images
 

related search cloud

 star  back  empire  strikes  wars  episode  anoxmous  bluray  track  tusahd