Torrent Search | Torrent Meta Search | Widgets

Czech Streets Videos Collections XXX

10.06 Gb
found 4 years ago
▲ seeders: 0 ▼ leechers:1
your vote:
real:
fake:
download torrent

Czech Streets Videos Collections XXX torrent

Information about the torrent Czech Streets Videos Collections XXX. Seeders, leechers and torrent status is updated several times per day.

If you want to download the adult torrent Czech Streets Videos Collections XXX you will need a torrent client.

Torrent Metasearch.

tracker
seeders
leechers
↓ torrent client compatible list

↑ hide torrent client compatible list

comments/reviews
140
torrent contents

Czech.Streets.Videos.Collections.XXX torrent

Czech.Streets.Videos.Collections.XXX
Czech.Streets.Videos.Collections.XXX.n.wmv327.87 Mb torrent search
Czech.Streets.Videos.Collections.XXX.m.wmv491.14 Mb torrent search
Czech.Streets.Videos.Collections.XXX.l.wmv371.69 Mb torrent search
Czech.Streets.Videos.Collections.XXX.o.wmv465.31 Mb torrent search
Czech.Streets.Videos.Collections.XXX.p.wmv413.53 Mb torrent search
Czech.Streets.Videos.Collections.XXX.s.wmv718.68 Mb torrent search
Czech.Streets.Videos.Collections.XXX.r.wmv491.12 Mb torrent search
Czech.Streets.Videos.Collections.XXX.q.wmv345.42 Mb torrent search
Czech.Streets.Videos.Collections.XXX.k.wmv426.33 Mb torrent search
Czech.Streets.Videos.Collections.XXX.j.wmv291.49 Mb torrent search
Czech.Streets.Videos.Collections.XXX.d.wmv900 Mb torrent search
Czech.Streets.Videos.Collections.XXX.c.wmv638.75 Mb torrent search
Czech.Streets.Videos.Collections.XXX.b.wmv629.51 Mb torrent search
Czech.Streets.Videos.Collections.XXX.e.wmv1.07 Gb torrent search
Czech.Streets.Videos.Collections.XXX.f.wmv659.52 Mb torrent search
Czech.Streets.Videos.Collections.XXX.i.wmv532.48 Mb torrent search
Czech.Streets.Videos.Collections.XXX.h.wmv494.57 Mb torrent search
Czech.Streets.Videos.Collections.XXX.g.wmv498 Mb torrent search
Czech.Streets.Videos.Collections.XXX.a.wmv512.32 Mb torrent search

Sample info:
Duration: 01:12:58.02, start: 3.000000, bitrate: 2102 kb/s
Stream #0.0(cze): Video: wmv3, yuv420p, 720x576, 2000 kb/s, PAR 12:11 DAR 15:11, 25 tbr, 1k tbn, 1k tbc
Stream #0.1(cze): Audio: wmav2, 44100 Hz, 2 channels, s16, 96 kb/s
screenshots
Images are auto generated please report any inapropriate images
 

related search cloud

 collections  videos  streets  czech