Torrent Search | Torrent Meta Search | Widgets

Avatar ECE (2009) 1080p

4 Gb
found 2 years ago
▲ seeders: 790 ▼ leechers:199
your vote:
real:
fake:
THANK YOU
download torrent
  Direct Downloadsponsored

Avatar ECE (2009) 1080p torrent

Information about the torrent Avatar ECE (2009) 1080p. Seeders, leechers and torrent status is updated everyday.

If you want to download the hdrip torrent Avatar ECE (2009) 1080p you will need a torrent client.

Torrent Metasearch.

tracker
seeders
leechers
↓ torrent client compatible list

↑ hide torrent client compatible list

reviews
140
torrent contents

Avatar ECE (2009) [1080p] torrent

Avatar ECE (2009) [1080p]
Avatar.ECE.2009.1080p.BrRip.x264.bitloks.YIFY.mp44 Gb torrent search
Avatar.ECE.2009.1080p.BrRip.x264.bitloks.YIFY.srt107.87 Kb torrent search
WWW.YIFY-TORRENTS.COM.jpg127.61 Kb torrent search

Sample info:
Duration: 02:58:09.49, start: 0.000000, bitrate: 3214 kb/s
31
63
Stream #0.0(eng): Video: h264 (High), yuv420p, 1920x1080 [PAR 1:1 DAR 16:9], 3110 kb/s, 23.98 fps, 23.98 tbr, 24k tbn, 47.95 tbc
creation_time	: 2013-04-18 10:50:46
Stream #0.1(eng): Audio: aac, 48000 Hz, stereo, s16, 95 kb/s
creation_time	: 2013-04-18 10:53:43
Stream #0.2	: Subtitle: text / 0x74786574, 0 kb/s
creation_time	: 2013-04-18 10:57:27
screenshots
Avatar ECE 2009 1080p torrent screenshot 539390D341F8C18400052ED905F77E48D6EBE40E Avatar ECE 2009 1080p torrent screenshot 539390d341f8c18400052ed905f77e48d6ebe40e torrent Avatar ECE 2009 1080p
Avatar ECE (2009) [1080p] images are auto generated please report any inapropriate images
you may be interested in these torrents seeders leechers size found
Avatar ECE (2009)     189 37 2 Gb 2 years ago

Avatar.ECE.2009.720p.BrRip.x264.bitloks.YIFY.mp4 Avatar.ECE.2009.720p.BrRip.x264.bitloks.YIFY.srt


Avatar ECE (2009) Bitloks (1920) mkv 4 0 5.38 Gb 7 months ago

Avatar ECE (2009)(Bitloks)(1920).mkv


Avatar ECE 3 0 3.99 Gb 3 years ago

Avatar.ECE.m2ts Avatar_(2009)ECE.jpg Torrent_downloaded_from_Demonoid.com.txt


 

related search cloud

 yify  avatar  bitloks  brrip  torrents