Torrent Search | Torrent Meta Search | Widgets

Gifted (2017) YTS AG

741.24 Mb
found 17 days ago
▲ seeders: 4871 ▼ leechers:842
your vote:
real:
fake:
download torrent

Gifted (2017) YTS AG torrent

Information about the torrent Gifted (2017) YTS AG. Seeders, leechers and torrent status is updated several times per day.

If you want to download the hdrip torrent Gifted (2017) YTS AG you will need a torrent client.

Torrent Metasearch.

tracker
seeders
leechers
↓ torrent client compatible list

↑ hide torrent client compatible list

torrent contents

Gifted (2017) [YTS.AG] torrent

Gifted (2017) [YTS.AG]
WWW.YTS.AG.jpg103.35 Kb torrent search
Gifted.2017.720p.BluRay.x264-[YTS.AG].mp4741.14 Mb torrent search

Sample info:
Duration: 01:41:10.16, start: 0.042667, bitrate: 1024 kb/s
Stream #0:0	: Video: h264 (High) (avc1 / 0x31637661), yuv420p, 1280x534 [SAR 801:800 DAR 12:5], 899 kb/s, 23.98 fps, 23.98 tbr, 13978 tbn, 47.95 tbc (default)
handler_name	: VideoHandler
Stream #0:1	: Audio: aac (LC) (mp4a / 0x6134706D), 48000 Hz, stereo, fltp, 117 kb/s (default)
handler_name	: SoundHandler
screenshots
Images are auto generated please report any inapropriate images
 

related search cloud

 gifted  bluray