Torrent Search | Torrent Meta Search | Widgets

Oral Sex Magic

       
975.22 Mb
found 3 years ago
▲ seeders: 1 ▼ leechers:0
your vote:
real:
fake:
THANK YOU
download torrent
  Direct Downloadsponsored

Oral Sex Magic torrent

Information about the torrent Oral Sex Magic. Seeders, leechers and torrent status is updated everyday.

If you want to download the video torrent Oral Sex Magic you will need a torrent client.

Torrent Metasearch.

Torrent verified by kat.ph.

tracker
seeders
leechers
↓ torrent client compatible list

↑ hide torrent client compatible list

reviews
140
torrent contents

Oral Sex Magic torrent

Oral Sex Magic
Oral Sex Magic 1.avi547.27 Mb torrent search
Oral Sex Magic 2 - Part 1.avi311.43 Mb torrent search
Oral Sex Magic 2 - Part 4.avi32.53 Mb torrent search
Oral Sex Magic 2 - Part 3.avi29.9 Mb torrent search
Oral Sex Magic 2 - Part 2.avi28.71 Mb torrent search
Oral Sex Magic 2 - Part 5.avi25.37 Mb torrent search

Sample info:
Duration: 00:44:52.56, start: 0.000000, bitrate: 1704 kb/s
Stream #0.0: Video: mpeg4, yuv420p, 720x480 [PAR 1:1 DAR 3:2], 23.98 fps, 23.98 tbr, 23.98 tbn, 24k tbc
Stream #0.1: Audio: mp3, 48000 Hz, 2 channels, s16, 192 kb/s
screenshots
Oral Sex Magic torrent screenshot 53E4AC5C490B2EEC0C053F1F4F83E250F51FDA22 Oral Sex Magic torrent screenshot 53e4ac5c490b2eec0c053f1f4f83e250f51fda22 torrent Oral Sex Magic
Oral Sex Magic images are auto generated please report any inapropriate images
you may be interested in these torrents seeders leechers size found
Two Girls Teach Sex Sex Instruction 23 11 12.57 Gb 2 years ago

[PornOnion.com] Oral Sex Magic #1.a


2GTS Keni Styles Superman Stamina 1 0 2.87 Gb 2 years ago

Oral Sex Magic part 1.m4v DVD 2 - Superman Stamina in action.m4v DVD 1 - Secre


 

related search cloud

 oral  magic  part