Torrent Search | Torrent Meta Search | Widgets

나 혼자 산다 E217 170811 720p NEXT

1.8 Gb
found 6 days ago
▲ seeders: 505 ▼ leechers:57
your vote:
real:
fake:
download torrent

나 혼자 산다 E217 170811 720p NEXT torrent

Information about the torrent 나 혼자 산다 E217 170811 720p NEXT. Seeders, leechers and torrent status is updated several times per day.

If you want to download the hdrip torrent 나 혼자 산다 E217 170811 720p NEXT you will need a torrent client.

Torrent Metasearch.

tracker
seeders
leechers
↓ torrent client compatible list

↑ hide torrent client compatible list

torrent contents

나 혼자 산다.E217.170811.720p-NEXT.mp4 torrent

나 혼자 산다.E217.170811.720p-NEXT.mp41.8 Gb torrent search

Sample info:
Duration: 01:25:38.48, start: 0.000000, bitrate: 3012 kb/s
Stream #0:0	: Video: h264 (High) (avc1 / 0x31637661), yuv420p, 1280x720 [SAR 1:1 DAR 16:9], 2814 kb/s, 29.97 fps, 29.97 tbr, 90k tbn, 59.94 tbc (default)
handler_name	: VideoHandler
Stream #0:1	: Audio: aac (LC) (mp4a / 0x6134706D), 48000 Hz, stereo, fltp, 189 kb/s (default)
handler_name	: SoundHandler
screenshots
Images are auto generated please report any inapropriate images
 

related search cloud

 next