Torrent Search | Torrent Meta Search | Widgets

Notre Dame de Paris (1999) NTSC DVD Fr Subs En Fr De Es

       
7.45 Gb
found 3 years ago
▲ seeders: 10 ▼ leechers:2
your vote:
real:
fake:
Direct Download
THANK YOU
download torrent
  Direct Downloadsponsored

Notre Dame de Paris (1999) NTSC DVD Fr Subs En Fr De Es torrent

Information about the torrent Notre Dame de Paris (1999) NTSC DVD Fr Subs En Fr De Es. A torrent file stores metadata that can be used from a BitTorrent client.

If you want to download the dvd torrent Notre Dame de Paris (1999) NTSC DVD Fr Subs En Fr De Es you will need a torrent client.

Torrent Metasearch.

Torrent verified by kat.ph.

tracker
seeders
leechers
↓ torrent client compatible list

↑ hide torrent client compatible list

Help torrentproject.se to stay alive .
Add links of torrentproject.se in your favorite forum, blog, youtube, facebook, twitter etc.
reviews
140
torrent contents

Notre-Dame de Paris [1999 NTSC DVD][Fr Subs[En.Fr.De.Es] torrent

Notre-Dame de Paris [1999 NTSC DVD][Fr Subs[En.Fr.De.Es]
 FullDisc
 NOTRE_DAME_PARIS
 VIDEO_TS
VTS_01_5.VOB1024 Mb torrent search
VTS_01_1.VOB1024 Mb torrent search
VTS_01_7.VOB1024 Mb torrent search
VTS_01_6.VOB1024 Mb torrent search
VTS_01_4.VOB1024 Mb torrent search
VTS_01_3.VOB1024 Mb torrent search
VTS_01_2.VOB1024 Mb torrent search
VTS_01_8.VOB455.89 Mb torrent search
VTS_01_0.VOB1.93 Mb torrent search

Notre-Dame de Paris [1999 NTSC DVD][Fr Subs[En.Fr.De.Es]
 Covers
Notre Dame De Paris-[inlay].jpg551.17 Kb torrent search
Notre Dame De Paris.jpg187.84 Kb torrent search
Notre Dame De Paris-[dvd].jpg184.14 Kb torrent search

Notre-Dame de Paris [1999 NTSC DVD][Fr Subs[En.Fr.De.Es]
 FullDisc
 NOTRE_DAME_PARIS
 VIDEO_TS
VTS_01_0.BUP104 Kb torrent search
VTS_01_0.IFO104 Kb torrent search

Notre-Dame de Paris [1999 NTSC DVD][Fr Subs[En.Fr.De.Es]
 Covers
tag_Notre Dame De Paris.jpg42.19 Kb torrent search

Notre-Dame de Paris [1999 NTSC DVD][Fr Subs[En.Fr.De.Es]
 FullDisc
 NOTRE_DAME_PARIS
 VIDEO_TS
VIDEO_TS.IFO12 Kb torrent search
VIDEO_TS.BUP12 Kb torrent search

Notre-Dame de Paris [1999 NTSC DVD][Fr Subs[En.Fr.De.Es]
Notre Dame de Paris.txt4.82 Kb torrent search

Notre-Dame de Paris [1999 NTSC DVD][Fr Subs[En.Fr.De.Es]
 FullDisc
 NOTRE_DAME_PARIS
 VIDEO_TS
VIDEO_TS.VOB2 Kb torrent search

Sample info:
Duration: 00:19:31.83, start: 568.265567, bitrate: 7330 kb/s
Stream #0.0[0x1e0]: Video: mpeg2video, yuv420p, 720x480 [PAR 8:9 DAR 4:3], 9000 kb/s, 36.58 fps, 29.97 tbr, 90k tbn, 59.94 tbc
Stream #0.1[0x80]: Audio: ac3, 48000 Hz, stereo, s16, 224 kb/s
screenshots
Notre Dame de Paris torrent screenshot 5501657F1A698ADD49CA05989F17C1226D4BDE30 Notre Dame de Paris  torrent screenshot 5501657f1a698add49ca05989f17c1226d4bde30 torrent Notre Dame de Paris
Notre-Dame de Paris [1999 NTSC DVD][Fr Subs[En.Fr.De.Es] images are auto generated please report any inapropriate images
you may be interested in these torrents seeders leechers size found
Notre Dame de Paris tfile ru mkv 48 1 1.69 Gb 3 years ago

Notre_Dame_de_Paris_[tfile.ru].mkv


Notre dame de Paris russian 22 1 1.22 Gb 4 years ago

Notre_dame_de_Paris_-_russian_[tfile.ru].avi


Notre dame de Paris     21 1 1.22 Gb 4 years ago

Notre_dame_de_Paris.avi


Notre Dame de Paris RUS Subtitles 16 0 1.22 Gb 4 years ago

Notre_Dame_de_Paris_RUS_Subtitles_CD1_[tfile.ru].avi Notre_Dame_de_Paris_RUS_Subtitles


Русский Нотр Дам+клип 11 1 813.66 Mb 4 years ago

notre dame de paris_NEW3.avi ПеткуÐ


뮤지컬 노트르담 드 파리 Notre Dame de Paris (1999) CD1 자체자막 8 0 694.02 Mb 2 years ago

[뮤지컬] 노트르담 드 파리 Notre Dame de Paris.1999.CD1 자체자막.avi


Notre Dame de Paris The Musical 7 1 1.07 Gb 4 years ago

Notre Dame de Paris.avi Notre Dame de Paris.srt.txt


Notre Dame De Paris Fr Spectacle Divx 6 0 637.09 Mb 4 years ago

Notre.Dame.De.Paris.Fr.Spectacle.Divx.avi


Il Gobbo Di Notre Dame Notre Dame de Paris (1956) 5 2 937.51 Mb 2 years ago

Il Gobbo Di Notre Dame - Notre Dame de Paris (1956).avi


 

related search cloud

 paris  dame  notre  video  subs  ntsc  fulldisc  covers  inlay