Torrent Search | Torrent Meta Search | Widgets

HorribleSubs Knight's & Magic 03 720p mkv

333.29 Mb
found 11 days ago
▲ seeders: 443 ▼ leechers:12
your vote:
real:
fake:
download torrent

HorribleSubs Knight's & Magic 03 720p mkv torrent

Information about the torrent HorribleSubs Knight's & Magic 03 720p mkv. Seeders, leechers and torrent status is updated everyday.

If you want to download the hdrip torrent HorribleSubs Knight's & Magic 03 720p mkv you will need a torrent client.

Torrent Metasearch.

tracker
seeders
leechers
↓ torrent client compatible list

↑ hide torrent client compatible list

torrent contents

[HorribleSubs] Knight's & Magic - 03 [720p].mkv torrent

[HorribleSubs] Knight's & Magic - 03 [720p].mkv333.29 Mb torrent search

Sample info:
Duration: 00:24:30.19, start: 0.000000, bitrate: 1901 kb/s
Stream #0:0: Video: h264 (High), yuv420p, 1280x720 [SAR 1:1 DAR 16:9], 23.81 fps, 23.81 tbr, 1k tbn, 47.95 tbc (default)
BPS	: 1769533
BPS-eng	: 1769533
DURATION	: 00:24:30.095000000
DURATION-eng	: 00:24:30.095000000
NUMBER_OF_FRAMES: 35248
NUMBER_OF_FRAMES-eng: 35248
NUMBER_OF_BYTES : 325172807
NUMBER_OF_BYTES-eng: 325172807
_STATISTICS_WRITING_APP: no_variable_data
_STATISTICS_WRITING_APP-eng: no_variable_data
_STATISTICS_WRITING_DATE_UTC: 1970-01-01 00:00:00
_STATISTICS_WRITING_DATE_UTC-eng: 1970-01-01 00:00:00
_STATISTICS_TAGS: BPS DURATION NUMBER_OF_FRAMES NUMBER_OF_BYTES
_STATISTICS_TAGS-eng: BPS DURATION NUMBER_OF_FRAMES NUMBER_OF_BYTES
Stream #0:1(jpn): Audio: aac (LC), 44100 Hz, stereo, fltp (default)
BPS	: 128000
BPS-eng	: 128000
DURATION	: 00:24:30.194000000
DURATION-eng	: 00:24:30.194000000
NUMBER_OF_FRAMES: 63316
NUMBER_OF_FRAMES-eng: 63316
NUMBER_OF_BYTES : 23523114
NUMBER_OF_BYTES-eng: 23523114
_STATISTICS_WRITING_APP: no_variable_data
_STATISTICS_WRITING_APP-eng: no_variable_data
_STATISTICS_WRITING_DATE_UTC: 1970-01-01 00:00:00
_STATISTICS_WRITING_DATE_UTC-eng: 1970-01-01 00:00:00
_STATISTICS_TAGS: BPS DURATION NUMBER_OF_FRAMES NUMBER_OF_BYTES
_STATISTICS_TAGS-eng: BPS DURATION NUMBER_OF_FRAMES NUMBER_OF_BYTES
Stream #0:2(eng): Subtitle: ass (default)
BPS	: 131
BPS-eng	: 131
DURATION	: 00:24:30.010000000
DURATION-eng	: 00:24:30.010000000
NUMBER_OF_FRAMES: 368
NUMBER_OF_FRAMES-eng: 368
NUMBER_OF_BYTES : 24145
NUMBER_OF_BYTES-eng: 24145
_STATISTICS_WRITING_APP: no_variable_data
_STATISTICS_WRITING_APP-eng: no_variable_data
_STATISTICS_WRITING_DATE_UTC: 1970-01-01 00:00:00
_STATISTICS_WRITING_DATE_UTC-eng: 1970-01-01 00:00:00
_STATISTICS_TAGS: BPS DURATION NUMBER_OF_FRAMES NUMBER_OF_BYTES
_STATISTICS_TAGS-eng: BPS DURATION NUMBER_OF_FRAMES NUMBER_OF_BYTES
Stream #0:3: Attachment: ttf
filename	: OpenSans-Semibold.ttf
mimetype	: application/x-truetype-font
screenshots
Images are auto generated please report any inapropriate images
 

related search cloud

 magic  knight  horriblesubs