Torrent Search | Torrent Meta Search | Widgets

National Geographic Test your Brain 3of3 Memory PDTV XviD MP3

       
640.06 Mb
found 5 years ago
▲ seeders: 3 ▼ leechers:3
your vote:
real:
fake:
download torrent

National Geographic Test your Brain 3of3 Memory PDTV XviD MP3 torrent

Information about the torrent National Geographic Test your Brain 3of3 Memory PDTV XviD MP3. Seeders, leechers and torrent status is updated several times per day.

If you want to download the tv torrent National Geographic Test your Brain 3of3 Memory PDTV XviD MP3 you will need a torrent client.

Torrent Metasearch.

.

tracker
seeders
leechers
↓ torrent client compatible list

↑ hide torrent client compatible list

comments/reviews
140
torrent contents

National.Geographic.Test.your.Brain.3of3.Memory.PDTV.XviD.MP3.MVGroup.org.avi torrent

National.Geographic.Test.your.Brain.3of3.Memory.PDTV.XviD.MP3.MVGroup.org.avi640.06 Mb torrent search

Sample info:
Duration: 00:44:59.60, start: 0.000000, bitrate: 1988 kb/s
Stream #0.0: Video: mpeg4 (Advanced Simple Profile), yuv420p, 720x416 [PAR 1:1 DAR 45:26], 25 tbr, 25 tbn, 25 tbc
Stream #0.1: Audio: mp3, 48000 Hz, stereo, s16, 128 kb/s
screenshots
Images are auto generated please report any inapropriate images
 

related search cloud

 pdtv  xvid  mvgroup  memory  brain  geographic  test  your  national