Torrent Search | Torrent Meta Search | Widgets

Agrotissa Moni Psaxnete

1.35 Gb
found 3 years ago
▲ seeders: 1 ▼ leechers:1
your vote:
real:
fake:
THANK YOU
download torrent
  Direct Downloadsponsored

Agrotissa Moni Psaxnete torrent

Information about the torrent Agrotissa Moni Psaxnete. Seeders, leechers and torrent status is updated everyday.

If you want to download the video torrent Agrotissa Moni Psaxnete you will need a torrent client.

Torrent Metasearch.

No trackers with seeders or leechers have been found, this doesn't mean that the torrent Agrotissa Moni Psaxnete is dead
reviews
140
torrent contents

Agrotissa.Moni.Psaxnete.avi torrent

Agrotissa.Moni.Psaxnete.avi1.35 Gb torrent search

Sample info:
Duration: 01:41:10.92, start: 0.000000, bitrate: 1915 kb/s
Stream #0.0: Video: mpeg4, yuv420p, 688x384 [PAR 1:1 DAR 43:24], 25.00 tb(r)
Stream #0.1: Audio: ac3, 48000 Hz, stereo, 192 kb/s
screenshots
Agrotissa Moni Psaxnete torrent screenshot 5A2796DC4FC29D0A058D93C6B9CDB525E0B377CB Agrotissa Moni Psaxnete torrent screenshot 5a2796dc4fc29d0a058d93c6b9cdb525e0b377cb torrent Agrotissa Moni Psaxnete
Agrotissa.Moni.Psaxnete.avi images are auto generated please report any inapropriate images
 

related search cloud

 psaxnete  moni  agrotia