Torrent Search | Torrent Meta Search | Widgets

Taboo The Original Classic DVDRip (1980)

       
899.45 Mb
found 5 years ago
▲ seeders: 16 ▼ leechers:1
your vote:
real:
fake:
download torrent

Taboo The Original Classic DVDRip (1980) torrent

Information about the torrent Taboo The Original Classic DVDRip (1980). Seeders, leechers and torrent status is updated everyday.

If you want to download the dvdrip torrent Taboo The Original Classic DVDRip (1980) you will need a torrent client.

Torrent Metasearch.

Torrent verified by kat.ph.

tracker
seeders
leechers
↓ torrent client compatible list

↑ hide torrent client compatible list

comments/reviews
140
torrent contents

Taboo - The Original Classic DVDRip (1980).avi torrent

Taboo - The Original Classic DVDRip (1980).avi899.45 Mb torrent search

Sample info:
Duration: 01:26:10.04, start: 0.000000, bitrate: 1459 kb/s
Stream #0.0: Video: mpeg4 (Advanced Simple Profile), yuv420p, 640x480 [PAR 1:1 DAR 4:3], 23.98 tbr, 23.98 tbn, 23.98 tbc
Stream #0.1: Audio: mp3, 48000 Hz, stereo, s16, 128 kb/s
screenshots
Images are auto generated please report any inapropriate images
 

related search cloud

 dvdrip  claic  original  taboo