Torrent Search | Torrent Meta Search | Widgets

Belladonna Like Hard Anal

       
258.45 Mb
found 4 years ago
▲ seeders: 7 ▼ leechers:3
your vote:
real:
fake:
Direct Download
THANK YOU
download torrent
  Direct Downloadsponsored

Belladonna Like Hard Anal torrent

Information about the torrent Belladonna Like Hard Anal. Seeders, leechers and torrent status is updated several times per day.

If you want to download the anal torrent Belladonna Like Hard Anal you will need a torrent client.

Torrent Metasearch.

Torrent verified by kat.ph.

tracker
seeders
leechers
↓ torrent client compatible list

↑ hide torrent client compatible list

Help torrentproject.se to stay alive .
Add links of torrentproject.se in your favorite forum, blog, youtube, facebook, twitter etc.
reviews
140
torrent contents

Belladonna Like Hard Anal torrent

Belladonna_Like_Hard_Anal
Belladonna_Like_Hard_Anal.avi227.36 Mb torrent search
Belladonna_Like_Hard_Anal.avi.jpg189.83 Kb torrent search
Facial Abuse Discount and Info.txt276 bytes torrent search
www.ghettogaggers.com-ms-platinum3.wmv30.2 Mb torrent search
www.ghettogaggers.com-ms-platinum3.wmv.jpg208.79 Kb torrent search

Sample info:
Duration: 00:31:29.26, start: 0.000000, bitrate: 1009 kb/s
Stream #0.0: Video: mpeg4 (Advanced Simple Profile), yuv420p, 512x384 [PAR 1:1 DAR 4:3], 23.98 tbr, 23.98 tbn, 23.98 tbc
Stream #0.1: Audio: mp3, 48000 Hz, stereo, s16, 159 kb/s
screenshots
Belladonna Like Hard Anal torrent screenshot 5B73806018292BF79080FC247E8A8E4BDF9FD338 Belladonna Like Hard Anal torrent screenshot 5b73806018292bf79080fc247e8a8e4bdf9fd338 torrent Belladonna Like Hard Anal
Belladonna Like Hard Anal images are auto generated please report any inapropriate images
you may be interested in these torrents seeders leechers size found
Belladonna Like Hard Anal 0 1 227.36 Mb 3 years ago

Belladonna Like Hard Anal.avi


 

related search cloud

 belladonna  hard  anal  like  ghettogaggers  platinum  info  facial  abuse  discount