Torrent Search | Torrent Meta Search | Widgets

KIDM 335 GOKUERO

1.18 Gb
found 2 years ago
▲ seeders: 2 ▼ leechers:1
your vote:
real:
fake:
Direct Download
THANK YOU
download torrent
  Direct Downloadsponsored

KIDM 335 GOKUERO torrent

Information about the torrent KIDM 335 GOKUERO. Seeders, leechers and torrent status is updated everyday.

If you want to download the video torrent KIDM 335 GOKUERO you will need a torrent client.

Torrent Metasearch.

tracker
seeders
leechers
↓ torrent client compatible list

↑ hide torrent client compatible list

Help torrentproject.se to stay alive .
Add links of torrentproject.se in your favorite forum, blog, youtube, facebook, twitter etc.
reviews
140
torrent contents

KIDM-335_GOKUERO.avi torrent

KIDM-335_GOKUERO.avi1.18 Gb torrent search

Sample info:
Duration: 01:33:02.00, start: 0.000000, bitrate: 1811 kb/s
Stream #0.0: Video: h264 (Main), yuv420p, 720x478 [PAR 32:27 DAR 1280:717], 29.97 fps, 29.97 tbr, 29.97 tbn, 59.94 tbc
Stream #0.1: Audio: mp3, 48000 Hz, stereo, s16, 160 kb/s
screenshots
KIDM 335 GOKUERO torrent screenshot 5C484BA6AA2EE74238F16ABEADFB076CD2B4F6DB KIDM 335 GOKUERO torrent screenshot 5c484ba6aa2ee74238f16abeadfb076cd2b4f6db torrent KIDM 335 GOKUERO
KIDM-335_GOKUERO.avi images are auto generated please report any inapropriate images
 

related search cloud

 gokuero  kidm