Torrent Search | Torrent Meta Search | Widgets

Private Exoctic 4 Tropical Top Model with Tarra White Anal

       
182.87 Mb
found 3 years ago
▲ seeders: 0 ▼ leechers:1
your vote:
real:
fake:
THANK YOU
download torrent
  Direct Downloadsponsored

Private Exoctic 4 Tropical Top Model with Tarra White Anal torrent

Information about the torrent Private Exoctic 4 Tropical Top Model with Tarra White Anal. Seeders, leechers and torrent status is updated several times per day.

If you want to download the anal torrent Private Exoctic 4 Tropical Top Model with Tarra White Anal you will need a torrent client.

Torrent Metasearch.

Torrent verified by kat.ph.

tracker
seeders
leechers
↓ torrent client compatible list

↑ hide torrent client compatible list

reviews
140
torrent contents

Private Exoctic 4 Tropical Top Model (with Tarra White) - Anal torrent

Private Exoctic 4 Tropical Top Model (with Tarra White) - Anal
Private Exoctic 4 Tropical Top Model (with Tarra White) - Anal.avi182.87 Mb torrent search
Torrent downloaded from rarbg.com.nfo33 bytes torrent search

Sample info:
Duration: 00:16:23.60, start: 0.000000, bitrate: 1559 kb/s
Stream #0.0: Video: mpeg4, yuv420p, 512x288 [PAR 1:1 DAR 16:9], 25 tbr, 25 tbn, 25 tbc
Stream #0.1: Audio: mp3, 48000 Hz, 2 channels, s16, 133 kb/s
screenshots
Private Exoctic 4 Tropical torrent screenshot 5C552A2F18012C770992E56AF6DD199B2C1230D2 Private Exoctic 4 Tropical  torrent screenshot 5c552a2f18012c770992e56af6dd199b2c1230d2 torrent Private Exoctic 4 Tropical
Private Exoctic 4 Tropical Top Model (with Tarra White) - Anal images are auto generated please report any inapropriate images
you may be interested in these torrents seeders leechers size found
Private Exoctic 2 Madagascar Sex Resort Olivia's 1st Anal 1 2 1.04 Gb 3 years ago

Private Exoctic 2 Madagascar Sex Resort - Olivia's 1st Anal.mp4 0


 

related search cloud

 white  anal  private  tarra  model  exoctic  tropical  rarbg  torrent  downloaded