Torrent Search | Torrent Meta Search | Widgets

LO SVARIONE DEGLI ANELLI PARTE III IL RITORNO DEL PADRINO

       
655.74 Mb
found 4 years ago
▲ seeders: 4 ▼ leechers:1
your vote:
real:
fake:
THANK YOU
download torrent
  Direct Downloadsponsored

LO SVARIONE DEGLI ANELLI PARTE III IL RITORNO DEL PADRINO torrent

Information about the torrent LO SVARIONE DEGLI ANELLI PARTE III IL RITORNO DEL PADRINO. Seeders, leechers and torrent status is updated several times per day.

If you want to download the video torrent LO SVARIONE DEGLI ANELLI PARTE III IL RITORNO DEL PADRINO you will need a torrent client.

Torrent Metasearch.

.

tracker
seeders
leechers
↓ torrent client compatible list

↑ hide torrent client compatible list

reviews
140
torrent contents

LO SVARIONE DEGLI ANELLI PARTE III - IL RITORNO DEL PADRINO.avi torrent

LO SVARIONE DEGLI ANELLI PARTE III - IL RITORNO DEL PADRINO.avi655.74 Mb torrent search

Sample info:
Duration: 01:06:22.52, start: 0.000000, bitrate: 1381 kb/s
Stream #0.0: Video: mpeg4 (Simple Profile), yuv420p, 1024x576 [PAR 1:1 DAR 16:9], 25 tbr, 25 tbn, 25 tbc
Stream #0.1: Audio: mp3, 48000 Hz, stereo, s16, 128 kb/s
screenshots
LO SVARIONE DEGLI ANELLI torrent screenshot 5CF7C3DDAC3A001421521C7A704E4E356A88D9FB LO SVARIONE DEGLI ANELLI  torrent screenshot 5cf7c3ddac3a001421521c7a704e4e356a88d9fb torrent LO SVARIONE DEGLI ANELLI
LO SVARIONE DEGLI ANELLI PARTE III - IL RITORNO DEL PADRINO.avi images are auto generated please report any inapropriate images
you may be interested in these torrents seeders leechers size found
XviD ITA Lo Svarione Degli anelli I DUE PORRI rip by Shella     11 1 714.42 Mb 4 years ago

[XVID-ITA] Lo Svarione Degli anelli - I DUE PORRI - Clistere.Org - rip by Shella.avi


Lo svarione degli Anelli La compagnia del verginello     10 1 692 Mb 4 years ago

Lo svarione degli Anelli - La compagnia del verginello.avi


Divx Ita Lo svarione degli anelli la compagnia del verginello full edition 4 1 711.26 Mb 4 years ago

Divx-Ita-Lo svarione degli anelli la compagnia del verginello (il s


XviD ITA Lo Svarione Degli anelli I DUE PORRI rip by Shella 3 1 714.42 Mb 4 years ago

[XVID-ITA] Lo Svarione Degli anelli - I DUE PORRI - Clistere.Org - rip by Shella.avi


Lo Svarione Degli Anelli I Due Porri 2 2 714.42 Mb 4 years ago

Lo Svarione Degli Anelli - I Due Porri.avi


Il Ritorno del Padrino Vol 2     2 0 1.02 Gb 3 years ago

Lo Svarione Degli Anelli 3 - Il Ritorno del Padrino - Vol 2.avi


XviD ITA Lo Svarione Degli anelli I DUE PORRI rip by Shella 1 1 714.42 Mb 4 years ago

[XVID-ITA] Lo Svarione Degli anelli - I DUE PORRI - Clistere.Org - rip by Shella.avi


 

related search cloud

 ritorno  padrino  parte  anelli  degli  svarione