Torrent Search | Torrent Meta Search | Widgets

Brasileirinhas Pecados & Tentacoes Leila Lopes

114.18 Mb
found 4 years ago
▲ seeders: 3 ▼ leechers:0
your vote:
real:
fake:
THANK YOU
download torrent
  Direct Downloadsponsored

Brasileirinhas Pecados & Tentacoes Leila Lopes torrent

Information about the torrent Brasileirinhas Pecados & Tentacoes Leila Lopes. Seeders, leechers and torrent status is updated several times per day.

If you want to download the adult torrent Brasileirinhas Pecados & Tentacoes Leila Lopes you will need a torrent client.

Torrent Metasearch.

tracker
seeders
leechers
↓ torrent client compatible list

↑ hide torrent client compatible list

reviews
140
torrent contents

Brasileirinhas - Pecados & Tentacoes - Leila Lopes torrent

Brasileirinhas - Pecados & Tentacoes - Leila Lopes
12073.jpg43.48 Kb torrent search
Brasileirinhas.200806.Pecados.e.Tentacoes.Cena1.Leila.Lopes.XXX.WS.DVDRip.wmv94.52 Mb torrent search
Brasileirinhas.200806.Pecados.e.Tentacoes.Cena3.Leila.Lopes.XXX.WS.DVDRip.wmv19.09 Mb torrent search
Capa.jpg96.65 Kb torrent search
Cena 1.jpg36.47 Kb torrent search
Cena 2.jpg380.54 Kb torrent search
leila-lopes.jpg23.55 Kb torrent search

Sample info:
Duration: 00:22:45.58, start: 5.000000, bitrate: 580 kb/s
Stream #0.0: Video: wmv3, yuv420p, 448x256, 512 kb/s, 29.97 tb(r)
Stream #0.1: Audio: wmav2, 44100 Hz, stereo, 64 kb/s
you may be interested in these torrents seeders leechers size found
Brasileirinhas Fio Terra: Anal Finger fucking (2007) PornLeech 18 6 999.82 Mb 19 days ago

[Brasileirinhas] Fio Terra (2007).avi


Brasileirinhas Clube da D P XXX DVDRip 17 15 2.04 Gb 14 days ago

Brasileirinhas-Clube da D.P CD1.avi Brasileirinhas-Clube da D.P CD2.avi


Brasileirinhas Último Tango Em Buenos Aires 15 4 1.13 Gb 17 days ago

Brasileirinhas-D P Anal Último Tango Em Buenos Aires CD1.avi Brasileirinhas-D P


Pacotasso 130 videos pornos 3gp para Celular5    15 4 382.17 Mb 2 years ago

Yasmin Vianna num mnage.3gp Comendo a Morena depois da Balada.3gp J


Brasileirinhas Cara De Santa XXX WEBRip NEW (2013)     11 1 740.24 Mb 2 years ago

CaraDeSanta_cena4.mp4 CaraDeSanta_cena3.mp4 CaraDeSanta_cena


sexo 10 11 617.51 Mb 2 years ago

- la del c e l u l a r, perdido(2).mpg 0014816.avi 02.wmv 03.mpg 11vo.flv


Anal Mania Marcia Imperator Brasileirinhas Berte UP 7 8 943.59 Mb 1 month ago

AnalMania_cena8.mp4 AnalMania_cena4.mp4


Bruna Ferraz PACK1   2     6 4 6.83 Gb 2 years ago

Brasileirinhas - Exploração Anal - 01.avi Brasileirinhas - Estrelas em Busca do Prazer.avi


BrasileirinhasMulheres Maduras    5 1 609.21 Mb 3 years ago

Brasileirinhas Anal Com Mulheres Maduras.avi


Brasileirinhas Taras De Um Fotografo XXX DVDRip     5 1 853.89 Mb 2 years ago

Patricia_cena1.mp4 Leona_cena4.mp4 Fabiane_cena2.mp4


 

related search cloud

 cena  lopes  leila  brasileirinhas  pecados  tentacoes  dvdrip  capa