Torrent Search | Torrent Meta Search | Widgets

Brasileirinhas Pecados & Tentacoes Leila Lopes

114.18 Mb
found 4 years ago
▲ seeders: 3 ▼ leechers:1
your vote:
real:
fake:
THANK YOU
download torrent
  Direct Downloadsponsored

Brasileirinhas Pecados & Tentacoes Leila Lopes torrent

Information about the torrent Brasileirinhas Pecados & Tentacoes Leila Lopes. Seeders, leechers and torrent status is updated several times per day.

If you want to download the adult torrent Brasileirinhas Pecados & Tentacoes Leila Lopes you will need a torrent client.

Torrent Metasearch.

tracker
seeders
leechers
↓ torrent client compatible list

↑ hide torrent client compatible list

reviews
140
torrent contents

Brasileirinhas - Pecados & Tentacoes - Leila Lopes torrent

Brasileirinhas - Pecados & Tentacoes - Leila Lopes
12073.jpg43.48 Kb torrent search
Brasileirinhas.200806.Pecados.e.Tentacoes.Cena1.Leila.Lopes.XXX.WS.DVDRip.wmv94.52 Mb torrent search
Brasileirinhas.200806.Pecados.e.Tentacoes.Cena3.Leila.Lopes.XXX.WS.DVDRip.wmv19.09 Mb torrent search
Capa.jpg96.65 Kb torrent search
Cena 1.jpg36.47 Kb torrent search
Cena 2.jpg380.54 Kb torrent search
leila-lopes.jpg23.55 Kb torrent search

Sample info:
Duration: 00:22:45.58, start: 5.000000, bitrate: 580 kb/s
Stream #0.0: Video: wmv3, yuv420p, 448x256, 512 kb/s, 29.97 tb(r)
Stream #0.1: Audio: wmav2, 44100 Hz, stereo, 64 kb/s
you may be interested in these torrents seeders leechers size found
Brasileirinhas Cara De Santa XXX WEBRip NEW (2013)     24 2 740.24 Mb 2 years ago

CaraDeSanta_cena4.mp4 CaraDeSanta_cena3.mp4 CaraDeSanta_cena


BrasileirinhasMulheres Maduras 17 3 609.21 Mb 3 years ago

Brasileirinhas Anal Com Mulheres Maduras.avi


Bruna Ferraz PACK 15 12 6.83 Gb 1 year ago

Brasileirinhas - Exploração Anal - 01.avi Brasileirinhas - Estrelas em Busca do Prazer.avi


Pacotasso 130 videos pornos 3gp para Celular 12 4 382.17 Mb 1 year ago

Yasmin Vianna num mnage.3gp Comendo a Morena depois da Balada.3gp J


Brasileirinhas Taras De Um Fotografo XXX DVDRip     10 7 853.89 Mb 2 years ago

Patricia_cena1.mp4 Leona_cena4.mp4 Fabiane_cena2.mp4


Brasileirinhas Paraiso Do Anal 2008 9 2 1.18 Gb 3 months ago

Brasileirinhas--Paraiso do Anal.avi


Festa Anal     8 2 1.37 Gb 4 years ago

12161.jpg Brasileirinhas - Festa Anal.avi thumbs20090101181256.jpg


Brasileirinhas A Amante DVDRip XxX 7 1 1.37 Gb 2 months ago

Brasileirinhas A Amante.DVDRip.XxX2.avi Brasileirinhas A Amante.DVDRip.XxX1.avi


100% Anal With Huge Cock O Verdadeiro Fenomeno Kid Bengala     7 2 699.69 Mb 4 years ago

Brasileirinhas - O Verdadeiro Fenomeno (Kid Bengala).avi Candiru For


Brasileirinhas Triplex Anal 3 (2006) DVDRip 3 5 798.81 Mb 3 months ago

Brasileirinhas.2006.Triplex.Anal.3.DVDRip.avi poster.jpg screens.jpg


 

related search cloud

 cena  lopes  leila  brasileirinhas  pecados  tentacoes  dvdrip  capa