Torrent Search | Torrent Meta Search | Widgets

The Avengers Earth's Mightiest Heroes Season 2 Episode 1 The Private War of Doctor Doom

       
248.68 Mb
found 4 years ago
▲ seeders: 1 ▼ leechers:1
your vote:
real:
fake:
download torrent

The Avengers Earth's Mightiest Heroes Season 2 Episode 1 The Private War of Doctor Doom torrent

Information about the torrent The Avengers Earth's Mightiest Heroes Season 2 Episode 1 The Private War of Doctor Doom. Seeders, leechers and torrent status is updated several times per day.

If you want to download the tv torrent The Avengers Earth's Mightiest Heroes Season 2 Episode 1 The Private War of Doctor Doom you will need a torrent client.

Torrent Metasearch.

Torrent verified by kat.ph.

No trackers with seeders or leechers have been found, this doesn't mean that the torrent The Avengers Earth's Mightiest Heroes Season 2 Episode 1 The Private War of Doctor Doom is dead
comments/reviews
140
torrent contents

The Avengers Earth's Mightiest Heroes Season 2 Episode 1 The Private War of Doctor Doom.avi torrent

The Avengers Earth's Mightiest Heroes Season 2 Episode 1 The Private War of Doctor Doom.avi248.68 Mb torrent search

Sample info:
Duration: 00:22:33.47, start: 0.000000, bitrate: 1541 kb/s
Stream #0.0: Video: mpeg4, yuv420p, 704x396 [PAR 1:1 DAR 16:9], 23.98 tbr, 23.98 tbn, 23.98 tbc
Stream #0.1: Audio: ac3, 48000 Hz, stereo, s16, 192 kb/s
screenshots
Images are auto generated please report any inapropriate images
 

related search cloud

 private  doctor  doom  episode  season  earth  mightiest  heroes  avengers