Torrent Search | Torrent Meta Search | Widgets

TamilRockers at Adventures Of Omanakuttan (2017) Malayalam DVDRip x264 700MB mkv

718.98 Mb
found 5 days ago
▲ seeders: 481 ▼ leechers:90
your vote:
real:
fake:
download torrent

TamilRockers at Adventures Of Omanakuttan (2017) Malayalam DVDRip x264 700MB mkv torrent

Information about the torrent TamilRockers at Adventures Of Omanakuttan (2017) Malayalam DVDRip x264 700MB mkv. Seeders, leechers and torrent status is updated everyday.

If you want to download the dvdrip torrent TamilRockers at Adventures Of Omanakuttan (2017) Malayalam DVDRip x264 700MB mkv you will need a torrent client.

Torrent Metasearch.

tracker
seeders
leechers
↓ torrent client compatible list

↑ hide torrent client compatible list

torrent contents

www.TamilRockers.at - Adventures Of Omanakuttan (2017) Malayalam DVDRip x264 700MB.mkv torrent

www.TamilRockers.at - Adventures Of Omanakuttan (2017) Malayalam DVDRip x264 700MB.mkv718.98 Mb torrent search

Sample info:
Duration: 02:42:42.67, start: 0.000000, bitrate: 617 kb/s
Stream #0:0(eng): Video: h264 (High), yuv420p, 608x256 [SAR 1:1 DAR 19:8], 23.98 fps, 23.98 tbr, 1k tbn, 47.95 tbc (default) (forced)
title	: www.TamilRockers.at
BPS	: 520022
BPS-eng	: 520022
DURATION	: 02:42:42.670000000
DURATION-eng	: 02:42:42.670000000
NUMBER_OF_FRAMES: 234070
NUMBER_OF_FRAMES-eng: 234070
NUMBER_OF_BYTES : 634601390
NUMBER_OF_BYTES-eng: 634601390
_STATISTICS_WRITING_APP: mkvmerge v7.8.0 ('River Man') 64bit built on Mar 27 2015 16:31:37
_STATISTICS_WRITING_APP-eng: mkvmerge v7.8.0 ('River Man') 64bit built on Mar 27 2015 16:31:37
_STATISTICS_WRITING_DATE_UTC: 2017-08-12 14:21:44
_STATISTICS_WRITING_DATE_UTC-eng: 2017-08-12 14:21:44
_STATISTICS_TAGS: BPS DURATION NUMBER_OF_FRAMES NUMBER_OF_BYTES
_STATISTICS_TAGS-eng: BPS DURATION NUMBER_OF_FRAMES NUMBER_OF_BYTES
Stream #0:1(eng): Audio: mp3, 48000 Hz, stereo, s16p, 96 kb/s (default) (forced)
title	: www.TamilRockers.at
BPS	: 96000
BPS-eng	: 96000
DURATION	: 02:42:42.672000000
DURATION-eng	: 02:42:42.672000000
NUMBER_OF_FRAMES: 406778
NUMBER_OF_FRAMES-eng: 406778
NUMBER_OF_BYTES : 117152064
NUMBER_OF_BYTES-eng: 117152064
_STATISTICS_WRITING_APP: mkvmerge v7.8.0 ('River Man') 64bit built on Mar 27 2015 16:31:37
_STATISTICS_WRITING_APP-eng: mkvmerge v7.8.0 ('River Man') 64bit built on Mar 27 2015 16:31:37
_STATISTICS_WRITING_DATE_UTC: 2017-08-12 14:21:44
_STATISTICS_WRITING_DATE_UTC-eng: 2017-08-12 14:21:44
_STATISTICS_TAGS: BPS DURATION NUMBER_OF_FRAMES NUMBER_OF_BYTES
_STATISTICS_TAGS-eng: BPS DURATION NUMBER_OF_FRAMES NUMBER_OF_BYTES
screenshots
Images are auto generated please report any inapropriate images
 

related search cloud

 dvdrip  malayalam  omanakuttan  adventures  tamilrockers