Torrent Search | Torrent Meta Search | Widgets

Strap Attack 16 XXX PORNO

2.05 Gb
found 2 years ago
▲ seeders: 0 ▼ leechers:1
your vote:
real:
fake:
Direct Download
THANK YOU
download torrent
  Direct Downloadsponsored

Strap Attack 16 XXX PORNO torrent

Information about the torrent Strap Attack 16 XXX PORNO. Seeders, leechers and torrent status is updated several times per day.

If you want to download the adult torrent Strap Attack 16 XXX PORNO you will need a torrent client.

Torrent Metasearch.

tracker
seeders
leechers
↓ torrent client compatible list

↑ hide torrent client compatible list

Help torrentproject.se to stay alive .
Add links of torrentproject.se in your favorite forum, blog, youtube, facebook, twitter etc.
reviews
140
torrent contents

Strap Attack 16 [XXX][PORNO] torrent

Strap Attack 16 [XXX][PORNO]
Strap Attack 16 [CD1][XXX][PORNO].avi702.96 Mb torrent search
Strap Attack 16 [CD2][XXX][PORNO].avi702.56 Mb torrent search
Strap Attack 16 [CD3][XXX][PORNO].avi697.36 Mb torrent search

Sample info:
Duration: 01:02:18.12, start: 0.000000, bitrate: 1577 kb/s
Stream #0.0: Video: mpeg4, yuv420p, 576x320 [PAR 1:1 DAR 9:5], 29.97 tbr, 29.97 tbn, 29.98 tbc
Stream #0.1: Audio: mp3, 48000 Hz, 2 channels, s16, 135 kb/s
screenshots
Strap Attack 16 XXX torrent screenshot 605E410A57CB949D258D04FEB87E70F4F85790FD Strap Attack 16 XXX  torrent screenshot 605e410a57cb949d258d04feb87e70f4f85790fd torrent Strap Attack 16 XXX
Strap Attack 16 [XXX][PORNO] images are auto generated please report any inapropriate images
 

related search cloud

 porno  attack  strap