Torrent Search | Torrent Meta Search | Widgets

BBC Adam Curtis HyperNormalisation WebRip x264 MCTV

       
890.18 Mb
found 9 months ago
▲ seeders: 71 ▼ leechers:2
your vote:
real:
fake:
download torrent

BBC Adam Curtis HyperNormalisation WebRip x264 MCTV torrent

Information about the torrent BBC Adam Curtis HyperNormalisation WebRip x264 MCTV. Seeders, leechers and torrent status is updated several times per day.

If you want to download the video torrent BBC Adam Curtis HyperNormalisation WebRip x264 MCTV you will need a torrent client.

Torrent Metasearch.

Torrent verified by thepiratebay.se.

tracker
seeders
leechers
↓ torrent client compatible list

↑ hide torrent client compatible list

torrent contents

BBC.Adam.Curtis.HyperNormalisation.WebRip.x264-MCTV torrent

BBC.Adam.Curtis.HyperNormalisation.WebRip.x264-MCTV
BBC.Adam.Curtis.HyperNormalisation.WebRip.x264-MCTV.mp4889.97 Mb torrent search
English.srt187.7 Kb torrent search
MulvaCodedTV.jpg30.31 Kb torrent search

Sample info:
Duration: 02:46:31.00, start: 0.000000, bitrate: 747 kb/s
Stream #0:0	: Video: h264 (High) (avc1 / 0x31637661), yuv420p, 720x404 [SAR 1:1 DAR 180:101], 647 kb/s, 25 fps, 25 tbr, 100 tbn, 50 tbc (default)
creation_time	: 2016-10-17 02:20:10
handler_name	: BBC.Adam.Curtis.HyperNormalisation.WebRip.x264-MCTV.h264#video - Imported with GPAC 0.5.0-rev
Stream #0:1	: Audio: aac (LC) (mp4a / 0x6134706D), 48000 Hz, stereo, fltp, 95 kb/s (default)
creation_time	: 2016-10-17 02:20:23
handler_name	: BBC.Adam.Curtis.HyperNormalisation.WebRip.x264-MCTV.aac#audio - Imported with GPAC 0.5.0-rev
Stream #0:2(eng): Subtitle: mov_text (tx3g / 0x67337874), 720x404, 0 kb/s (default)
creation_time	: 2016-10-17 02:20:26
handler_name	: BBC.Adam.Curtis.HyperNormalisation.WebRip.x264-MCTV.srt:hdlr=sbtl:lang=en:group=2:layer=-1 - Imported with GPAC 0.5.0-rev
screenshots
Images are auto generated please report any inapropriate images
 

related search cloud

 mctv  adam  webrip  hypernormalisation  curtis  mulvacodedtv  english