Torrent Search | Torrent Meta Search | Widgets

Clash Of The Titans (2010) BluRay 720p DTS X264 CHD

       
5.26 Gb
found 4 years ago
▲ seeders: 0 ▼ leechers:1
your vote:
real:
fake:

Clash of the Titans

2010 · 106 min · 5.8/10 (229k votes) in imdb
Action, Adventure, Fantasy
Titans will clash.
Director: Louis Leterrier
Born of a god but raised as a man, Perseus is helpless to save his family from Hades, vengeful god of the underworld. With nothing to lose, Perseus volunteers to lead a dangerous mission to defeat Hades before he can seize power from Zeus and unleash hell on earth. Battling unholy demons and fearsome beasts, Perseus and his warriors will only survive if Perseus accepts his power as a god, defies fate and creates his own destiny.
download torrent

Clash Of The Titans (2010) BluRay 720p DTS X264 CHD torrent

Information about the torrent Clash Of The Titans (2010) BluRay 720p DTS X264 CHD. Seeders, leechers and torrent status is updated several times per day.

If you want to download the hdrip torrent Clash Of The Titans (2010) BluRay 720p DTS X264 CHD you will need a torrent client.

Torrent Metasearch.

Torrent verified by kat.ph.

No trackers with seeders or leechers have been found, this doesn't mean that the torrent Clash Of The Titans (2010) BluRay 720p DTS X264 CHD is dead
comments/reviews
140
torrent contents

Clash.Of.The.Titans.2010.BluRay.720p.DTS.X264-CHD torrent

Clash.Of.The.Titans.2010.BluRay.720p.DTS.X264-CHD
Clash.Of.The.Titans.2010.BluRay.720p.DTS.X264-CHD.mkv5.01 Gb torrent search
Alternate.Ending.mkv209.76 Mb torrent search
Clash.Of.The.Titans.sample.mkv51.53 Mb torrent search
Clash.Of.The.Titans.2010.BluRay.720p.DTS.X264-CHD.nfo8.6 Kb torrent search

Sample info:
Duration: 01:46:07.57, start: 0.000000, bitrate: 1536 kb/s
Stream #0.0(eng): Video: h264, yuv420p, 1280x534, PAR 1:1 DAR 640:267, 23.98 fps, 24 tbr, 1k tbn, 47.95 tbc
Stream #0.1(eng): Audio: dca, 48000 Hz, 5.1, s16, 1536 kb/s
title	: DTSHD core5.1 1536k
screenshots
Images are auto generated please report any inapropriate images
 

related search cloud

 titans  clash  bluray  sample  ending  alternate