Torrent Search | Torrent Meta Search | Widgets

Fargo S03E01 PROPER HDTV x264 SVA eztv mkv

320.31 Mb
found 2 months ago
▲ seeders: 141 ▼ leechers:52
your vote:
real:
fake:
download torrent

Fargo S03E01 PROPER HDTV x264 SVA eztv mkv torrent

Information about the torrent Fargo S03E01 PROPER HDTV x264 SVA eztv mkv. Seeders, leechers and torrent status is updated everyday.

If you want to download the tv torrent Fargo S03E01 PROPER HDTV x264 SVA eztv mkv you will need a torrent client.

Torrent Metasearch.

tracker
seeders
leechers
↓ torrent client compatible list

↑ hide torrent client compatible list

torrent contents

Fargo.S03E01.PROPER.HDTV.x264-SVA[eztv].mkv torrent

Fargo.S03E01.PROPER.HDTV.x264-SVA[eztv].mkv320.31 Mb torrent search

Sample info:
Duration: 01:05:15.16, start: 0.000000, bitrate: 686 kb/s
Stream #0:0: Video: h264 (High), yuv420p(tv, bt709/unknown/unknown), 720x360, SAR 1:1 DAR 2:1, 23.98 fps, 23.98 tbr, 1k tbn, 47.95 tbc (default)
Stream #0:1: Audio: aac (LC), 48000 Hz, stereo, fltp (default)
screenshots
Images are auto generated please report any inapropriate images
 

related search cloud

 eztv  hdtv  proper  fargo