Torrent Search | Torrent Meta Search | Widgets

Mature&Granny

13.74 Gb
found 2 years ago
▲ seeders: 2 ▼ leechers:4
your vote:
real:
fake:
Direct Download
THANK YOU
download torrent
  Direct Downloadsponsored

Mature&Granny torrent

Information about the torrent Mature&Granny. Seeders, leechers and torrent status is updated several times per day.

If you want to download the threesome torrent Mature&Granny you will need a torrent client.

Torrent Metasearch.

tracker
seeders
leechers
↓ torrent client compatible list

↑ hide torrent client compatible list

Help torrentproject.se to stay alive .
Add links of torrentproject.se in your favorite forum, blog, youtube, facebook, twitter etc.
reviews
140
torrent contents

Mature&Granny torrent

Mature&Granny
 !British
ABUELITAS-VIEJAS-MADURAS-GRANNY-MATURES-STOCKINGS-British slut Cathy plays with herself in various scenes.flv244.18 Mb torrent search
ABUELITAS-VIEJAS-MADURAS-GRANNY-MATURES-STOCKINGS-British slut Dion plays with herself in various scenes.flv239.97 Mb torrent search
ABUELITAS-VIEJAS-MADURAS-GRANNY-MATURES-STOCKINGS-Busty british mom - mature sex.flv65.89 Mb torrent search
ABUELITAS-VIEJAS-MADURAS-GRANNY-MATURES-STOCKINGS-Granny English Threesome mature mature porn granny old cumshots cumshot.flv98.03 Mb torrent search

Mature&Granny
 !Disgusting
ABUELITAS-VIEJAS-MADURAS-GRANNY-MATURES-STOCKINGS-017-XXX-porn-vieilles dames-vient a echeance-les mamies-alt~1.mov8.39 Mb torrent search
ABUELITAS-VIEJAS-MADURAS-GRANNY-MATURES-STOCKINGS-18180_5min.flv22.72 Mb torrent search
ABUELITAS-VIEJAS-MADURAS-GRANNY-MATURES-STOCKINGS-25464_5min.flv36.59 Mb torrent search
ABUELITAS-VIEJAS-MADURAS-GRANNY-MATURES-STOCKINGS-Addicted 2 azz_ Something for the HATERZ in 2012.flv115.32 Mb torrent search
ABUELITAS-VIEJAS-MADURAS-GRANNY-MATURES-STOCKINGS-BigMurraysNewCummers18CorpulateCooze_scene3_Vidz.com_gal5min.flv12.57 Mb torrent search
ABUELITAS-VIEJAS-MADURAS-GRANNY-MATURES-STOCKINGS-Bizarre Threesome With Two Mature Lesbian Midgets In Sexy Lingerie.flv76.71 Mb torrent search
ABUELITAS-VIEJAS-MADURAS-GRANNY-MATURES-STOCKINGS-British MILF Kirstyn Halborg Gets Fucked.flv98.25 Mb torrent search
ABUELITAS-VIEJAS-MADURAS-GRANNY-MATURES-STOCKINGS-Creamy facial.flv24.59 Mb torrent search

Sample info:
Duration: 01:24:53.56, start: 0.080000, bitrate: 448 kb/s
Stream #0.0: Video: h264 (High), yuv420p, 480x360 [PAR 1:1 DAR 4:3], 408 kb/s, 25 tbr, 1k tbn, 50 tbc
Stream #0.1: Audio: aac, 22050 Hz, stereo, s16, 40 kb/s
screenshots
Mature&Granny torrent screenshot 64FB36A6F30D7248DCA5B8302216DB9CC0B2B9ED Mature&Granny torrent screenshot 64fb36a6f30d7248dca5b8302216db9cc0b2b9ed torrent Mature&Granny
Mature&Granny images are auto generated please report any inapropriate images
you may be interested in these torrents seeders leechers size found
Older And Anal 21 1 2 849.88 Mb 4 years ago

636501.jpg Nfo.nfo OD-1.jpg OD-2.jpg Older And Anal 21b.jpg Older And Anal 21


Mature Granny Bang Facial Old Lady Divx PC 0 1 24.56 Mb 4 years ago

Mature_Granny_Bang_Facial_Old_Lady_Divx_PC.avi


Older And Anal 21 0 2 849.14 Mb 3 years ago

older and anal-21 mature granny grannies disk01.mpg older and anal-21 mature granny grannies disk02.mpg


Kinky Stockings pr0n 50+ gigs 0 4 53.96 Gb 1 year ago

Kinky-Stockings-pr0n-50+-gigs.torrent ABUELI


 

related search cloud

 granny  matures  stockings  viejas  maduras  abuelitas  mature  british  threesome  gets