Torrent Search | Torrent Meta Search | Widgets

Mature&Granny

13.74 Gb
found 3 years ago
▲ seeders: 0 ▼ leechers:1
your vote:
real:
fake:
download torrent

Mature&Granny torrent

Information about the torrent Mature&Granny. Seeders, leechers and torrent status is updated several times per day.

If you want to download the threesome torrent Mature&Granny you will need a torrent client.

Torrent Metasearch.

No trackers with seeders or leechers have been found, this doesn't mean that the torrent Mature&Granny is dead
comments/reviews
140
torrent contents

Mature&Granny torrent

Mature&Granny
 !British
ABUELITAS-VIEJAS-MADURAS-GRANNY-MATURES-STOCKINGS-British slut Cathy plays with herself in various scenes.flv244.18 Mb torrent search
ABUELITAS-VIEJAS-MADURAS-GRANNY-MATURES-STOCKINGS-British slut Dion plays with herself in various scenes.flv239.97 Mb torrent search
ABUELITAS-VIEJAS-MADURAS-GRANNY-MATURES-STOCKINGS-Busty british mom - mature sex.flv65.89 Mb torrent search
ABUELITAS-VIEJAS-MADURAS-GRANNY-MATURES-STOCKINGS-Granny English Threesome mature mature porn granny old cumshots cumshot.flv98.03 Mb torrent search

Mature&Granny
 !Disgusting
ABUELITAS-VIEJAS-MADURAS-GRANNY-MATURES-STOCKINGS-017-XXX-porn-vieilles dames-vient a echeance-les mamies-alt~1.mov8.39 Mb torrent search
ABUELITAS-VIEJAS-MADURAS-GRANNY-MATURES-STOCKINGS-18180_5min.flv22.72 Mb torrent search
ABUELITAS-VIEJAS-MADURAS-GRANNY-MATURES-STOCKINGS-25464_5min.flv36.59 Mb torrent search
ABUELITAS-VIEJAS-MADURAS-GRANNY-MATURES-STOCKINGS-Addicted 2 azz_ Something for the HATERZ in 2012.flv115.32 Mb torrent search
ABUELITAS-VIEJAS-MADURAS-GRANNY-MATURES-STOCKINGS-BigMurraysNewCummers18CorpulateCooze_scene3_Vidz.com_gal5min.flv12.57 Mb torrent search
ABUELITAS-VIEJAS-MADURAS-GRANNY-MATURES-STOCKINGS-Bizarre Threesome With Two Mature Lesbian Midgets In Sexy Lingerie.flv76.71 Mb torrent search
ABUELITAS-VIEJAS-MADURAS-GRANNY-MATURES-STOCKINGS-British MILF Kirstyn Halborg Gets Fucked.flv98.25 Mb torrent search
ABUELITAS-VIEJAS-MADURAS-GRANNY-MATURES-STOCKINGS-Creamy facial.flv24.59 Mb torrent search
ABUELITAS-VIEJAS-MADURAS-GRANNY-MATURES-STOCKINGS-Curly Haired Granny Gets Double Teamed.flv57.63 Mb torrent search
ABUELITAS-VIEJAS-MADURAS-GRANNY-MATURES-STOCKINGS-Granny Dana (66) strips and masturbates.flv131.9 Mb torrent search
ABUELITAS-VIEJAS-MADURAS-GRANNY-MATURES-STOCKINGS-Hot 60 Plus - 6 Suzanne.flv74.8 Mb torrent search
ABUELITAS-VIEJAS-MADURAS-GRANNY-MATURES-STOCKINGS-I want a young hard dick that likes to please an older lady.mp446.52 Mb torrent search
ABUELITAS-VIEJAS-MADURAS-GRANNY-MATURES-STOCKINGS-La nonna lo ciuccia @ H2Porn.flv45.25 Mb torrent search
ABUELITAS-VIEJAS-MADURAS-GRANNY-MATURES-STOCKINGS-Mature In Stockings Fucks The Decorator.flv86.65 Mb torrent search
ABUELITAS-VIEJAS-MADURAS-GRANNY-MATURES-STOCKINGS-Mature Italian Seduced By Two Young Guys And Fucked.flv121.99 Mb torrent search
ABUELITAS-VIEJAS-MADURAS-GRANNY-MATURES-STOCKINGS-Mature slut in stockings seduced and screwed.flv70.27 Mb torrent search
ABUELITAS-VIEJAS-MADURAS-GRANNY-MATURES-STOCKINGS-My granny loves anal - HardSexTube.flv85.77 Mb torrent search
ABUELITAS-VIEJAS-MADURAS-GRANNY-MATURES-STOCKINGS-Old Ass Mamas Still Got It! - The X-Rated Search Engine.flv47.4 Mb torrent search
ABUELITAS-VIEJAS-MADURAS-GRANNY-MATURES-STOCKINGS-Old Granny., Free Porn - Sex - Porno at Tnaflix.flv78.65 Mb torrent search
ABUELITAS-VIEJAS-MADURAS-GRANNY-MATURES-STOCKINGS-Our beloved grandmother.mp484.01 Mb torrent search
ABUELITAS-VIEJAS-MADURAS-GRANNY-MATURES-STOCKINGS-s_fhg_actionmatures_g692_clip.flv15.6 Mb torrent search
ABUELITAS-VIEJAS-MADURAS-GRANNY-MATURES-STOCKINGS-Stockings.VIDZ.COM Full Length Categorized Porn Sex Tube Vi~1.flv6.55 Mb torrent search

Sample info:
Duration: 01:24:53.56, start: 0.080000, bitrate: 448 kb/s
Stream #0.0: Video: h264 (High), yuv420p, 480x360 [PAR 1:1 DAR 4:3], 408 kb/s, 25 tbr, 1k tbn, 50 tbc
Stream #0.1: Audio: aac, 22050 Hz, stereo, s16, 40 kb/s
screenshots
Images are auto generated please report any inapropriate images
 

related search cloud

 granny  stockings  viejas  abuelitas  maduras  matures  mature  british  porn  slut