Torrent Search | Torrent Meta Search | Widgets

S O A Season 2

       
5.04 Gb
found 5 years ago
▲ seeders: 5 ▼ leechers:1
your vote:
real:
fake:
download torrent

S O A Season 2 torrent

Information about the torrent S O A Season 2. Seeders, leechers and torrent status is updated several times per day.

If you want to download the tv torrent S O A Season 2 you will need a torrent client.

Torrent Metasearch.

Torrent verified by torlock.com.

tracker
seeders
leechers
↓ torrent client compatible list

↑ hide torrent client compatible list

comments/reviews
140
torrent contents

S.O.A Season 2 torrent

S.O.A Season 2
SonsofAnarchy.Ep10.Balm.avi551.85 Mb torrent search
SonsofAnarchy.Ep13.NaTriobloidi.avi550.31 Mb torrent search
SonsofAnarchy.Ep1.albification.avi550 Mb torrent search
SonsofAnarchy.Ep8.Potlatch.avi353.01 Mb torrent search
SonsofAnarchy.Ep3.Fix.avi352.04 Mb torrent search
SonsofAnarchy.Ep9.FaGuan.avi351.21 Mb torrent search
SonsofAnarchy.Ep4.Eureka.avi351.18 Mb torrent search
SonsofAnarchy.Ep7.Gilead.avi350.43 Mb torrent search
SonsofAnarchy.Ep12.TheCulling.avi350.28 Mb torrent search
SonsofAnarchy.Ep2.Small Tears.avi349.97 Mb torrent search
SonsofAnarchy.Ep5.Smite.avi349.54 Mb torrent search
SonsofAnarchy.Ep6.FaixCerebri.avi348.26 Mb torrent search
SonsofAnarchy.Ep11.Service.avi348.24 Mb torrent search

Sample info:
Duration: 00:55:14.44, start: 0.000000, bitrate: 1396 kb/s
Stream #0.0: Video: mpeg4 (Advanced Simple Profile), yuv420p, 624x352 [PAR 1:1 DAR 39:22], 23.98 tbr, 23.98 tbn, 23.98 tbc
Stream #0.1: Audio: mp3, 48000 Hz, stereo, s16, 128 kb/s
screenshots
Images are auto generated please report any inapropriate images