Torrent Search | Torrent Meta Search | Widgets

BigTitsRoundAsses Skyla Novea is the busty step sister every guy wants 20 04 (2017) rq

279.63 Mb
found 4 months ago
▲ seeders: 73 ▼ leechers:8
your vote:
real:
fake:
download torrent

BigTitsRoundAsses Skyla Novea is the busty step sister every guy wants 20 04 (2017) rq torrent

Information about the torrent BigTitsRoundAsses Skyla Novea is the busty step sister every guy wants 20 04 (2017) rq. Seeders, leechers and torrent status is updated several times per day.

If you want to download the adult torrent BigTitsRoundAsses Skyla Novea is the busty step sister every guy wants 20 04 (2017) rq you will need a torrent client.

Torrent Metasearch.

tracker
seeders
leechers
↓ torrent client compatible list

↑ hide torrent client compatible list

torrent contents

[BigTitsRoundAsses] Skyla Novea is the busty step-sister every guy wants (20.04.2017) rq.mp4 torrent

[BigTitsRoundAsses] Skyla Novea is the busty step-sister every guy wants (20.04.2017) rq.mp4279.63 Mb torrent search

Sample info:
Duration: 00:25:04.32, start: 0.000000, bitrate: 1558 kb/s
Stream #0:0(eng): Video: h264 (Main) (avc1 / 0x31637661), yuv420p(tv, smpte170m), 852x480, 1508 kb/s, 29.97 fps, 29.97 tbr, 30k tbn, 59.94 tbc (default)
creation_time	: 2017-04-06 19:14:43
handler_name	: Alias Data Handler
encoder	: AVC Coding
Stream #0:1(eng): Audio: aac (LC) (mp4a / 0x6134706D), 32000 Hz, stereo, fltp, 46 kb/s (default)
creation_time	: 2017-04-06 19:14:43
handler_name	: Alias Data Handler
screenshots
Images are auto generated please report any inapropriate images
 

related search cloud

 sister  every  wants  step  busty  skyla  novea  bigtitsroundaes