Torrent Search | Torrent Meta Search | Widgets

Special ID (2013) HDRip 720p AAC x264 Pencurimovie sx mkv

1.03 Gb
found 1 year ago
▲ seeders: 3 ▼ leechers:1
your vote:
real:
fake:
THANK YOU
download torrent

Special ID (2013) HDRip 720p AAC x264 Pencurimovie sx mkv torrent

Information about the torrent Special ID (2013) HDRip 720p AAC x264 Pencurimovie sx mkv. Seeders, leechers and torrent status is updated everyday.

If you want to download the hdrip torrent Special ID (2013) HDRip 720p AAC x264 Pencurimovie sx mkv you will need a torrent client.

Torrent Metasearch.

tracker
seeders
leechers
↓ torrent client compatible list

↑ hide torrent client compatible list

reviews
140
torrent contents

Special ID (2013) HDRip 720p AAC x264 - Pencurimovie.sx.mkv torrent

Special ID (2013) HDRip 720p AAC x264 - Pencurimovie.sx.mkv1.03 Gb torrent search

Sample info:
Duration: 01:35:38.95, start: 0.000000, bitrate: 1537 kb/s
Stream #0:0: Video: h264 (High), yuv420p, 1280x720 [SAR 1:1 DAR 16:9], 25 fps, 25 tbr, 1k tbn, 50 tbc (default)
Stream #0:1: Audio: aac, 44100 Hz, stereo, s16 (default)
screenshots
Special ID 2013 HDRip torrent screenshot 67492438037F2369BC386EA7DFE31F37954C95C3 Special ID 2013 HDRip  torrent screenshot 67492438037f2369bc386ea7dfe31f37954c95c3 torrent Special ID 2013 HDRip
Images are auto generated please report any inapropriate images
you may be interested in these torrents seeders leechers size found
Special ID (2013) HDRip x264 AC3 ADiOS 1 0 1.47 Gb 1 year ago

Special.ID.2013.HDRip.x264.AC3-ADiOS.mkv Special.ID.jpg Special.ID.2013.HDRi


Special ID (2013) HDRip XviD MP3 DVO rip by Assassin's Creed 1 0 748.59 Mb 9 months ago

Special ID.2013.HDRip.XviD.MP3.DVO. rip by [Assassin's Creed].avi


Special ID (2013) HDRip mp4 by 1 0 399.57 Mb 11 months ago

Special.ID.2013.HDRip.(mp4).by.HD-NET.mp4


 

related search cloud

 pencurimovie  hdrip  special