Torrent Search | Torrent Meta Search | Widgets

Incendies (2010) DVDRip XviD AC3 HORiZON ArtSubs

       
1.46 Gb
found 3 years ago
▲ seeders: 143 ▼ leechers:4
your vote:
real:
fake:
Direct Download
THANK YOU
download torrent
  Direct Downloadsponsored

Incendies (2010) DVDRip XviD AC3 HORiZON ArtSubs torrent

Information about the torrent Incendies (2010) DVDRip XviD AC3 HORiZON ArtSubs. Seeders, leechers and torrent status is updated several times per day.

If you want to download the dvdrip torrent Incendies (2010) DVDRip XviD AC3 HORiZON ArtSubs you will need a torrent client.

Torrent Metasearch.

.

tracker
seeders
leechers
↓ torrent client compatible list

↑ hide torrent client compatible list

Help torrentproject.se to stay alive .
Add links of torrentproject.se in your favorite forum, blog, youtube, facebook, twitter etc.
reviews
140
torrent contents

Incendies.2010.DVDRip.XviD.AC3.HORiZON-ArtSubs torrent

Incendies.2010.DVDRip.XviD.AC3.HORiZON-ArtSubs
Incendies.2010.DVDRip.XviD.AC3.HORiZON-ArtSubs.avi1.46 Gb torrent search
Incendies.jpg225.74 Kb torrent search
Incendies.2010.DVDRip.XviD.AC3.HORiZON-ArtSubs.FR.srt81.61 Kb torrent search

Sample info:
Duration: 02:10:26.36, start: 0.000000, bitrate: 1603 kb/s
Stream #0.0: Video: mpeg4 (Advanced Simple Profile), yuv420p, 704x368 [PAR 1:1 DAR 44:23], 23.98 tbr, 23.98 tbn, 23.98 tbc
Stream #0.1: Audio: ac3, 48000 Hz, 5.1, s16, 448 kb/s
screenshots
Incendies 2010 DVDRip XviD torrent screenshot 68559850AC8033C32E11C442F5D569693601B8E9 Incendies 2010 DVDRip XviD  torrent screenshot 68559850ac8033c32e11c442f5d569693601b8e9 torrent Incendies 2010 DVDRip XviD
Incendies.2010.DVDRip.XviD.AC3.HORiZON-ArtSubs images are auto generated please report any inapropriate images
 

related search cloud

 incendies  artsubs  horizon  xvid  dvdrip