Torrent Search | Torrent Meta Search | Widgets

RCT 502

1.13 Gb
found 1 year ago
▲ seeders: 2 ▼ leechers:0
your vote:
real:
fake:
Direct Download
THANK YOU
download torrent
  Direct Downloadsponsored

RCT 502 torrent

Information about the torrent RCT 502. Seeders, leechers and torrent status is updated several times per day.

If you want to download the video torrent RCT 502 you will need a torrent client.

Torrent Metasearch.

tracker
seeders
leechers
↓ torrent client compatible list

↑ hide torrent client compatible list

Help torrentproject.se to stay alive .
Add links of torrentproject.se in your favorite forum, blog, youtube, facebook, twitter etc.
reviews
140
torrent contents

RCT-502.mp4 torrent

RCT-502.mp41.13 Gb torrent search

Sample info:
Duration: 01:39:57.72, start: 0.000000, bitrate: 1623 kb/s
Stream #0.0	: Video: h264 (High), yuv420p, 720x480 [PAR 32:27 DAR 16:9], 1575 kb/s, 29.97 fps, 29.97 tbr, 30k tbn, 59.94 tbc
creation_time	: 2013-05-23 08:44:11
Stream #0.1	: Audio: aac, 48000 Hz, stereo, s16, 44 kb/s
creation_time	: 2013-05-23 08:44:54
screenshots
RCT 502 torrent screenshot 6975A69CED0301CA186ED9D8E74C24E09FED0221 RCT 502 torrent screenshot 6975a69ced0301ca186ed9d8e74c24e09fed0221 torrent RCT 502
RCT-502.mp4 images are auto generated please report any inapropriate images
you may be interested in these torrents seeders leechers size found
RCT 502 3 0 1.13 Gb 1 year ago

RCT-502.mp4


RCT 502 2 0 1.13 Gb 8 months ago

113414zywta1valauviwfz.jpg.thumb.jpg 113604y6a7eeae3eyy9ds7.jpg.thumb.jpg RCT-502.mp4 小硬


im520@SIS001@RCT 502 0 1 366.75 Mb 1 year ago

RCT-502.jpg RCT-502.rmvb SIS001影视联盟.gif im520@www.sis001.com.url 0


19 RCT 502 C 0 1 327.51 Mb 8 months ago

11.55@sex8.cc.url 99BT工厂最新地址.mht RCT-502-C.jpg RCT-502-C.rmvb


神的玩偶@ sexinsex net@RCT 502 0 1 1.14 Gb 1 year ago

Asia Censored Authorship Seed 亚洲成人有码原创区 - SexInSex! Board (正版SIS主域名:174.12