Torrent Search | Torrent Meta Search | Widgets

Nessa Devil Hard Anal

774.84 Mb
found 3 years ago
▲ seeders: 2 ▼ leechers:2
your vote:
real:
fake:
Direct Download
THANK YOU
download torrent
  Direct Downloadsponsored

Nessa Devil Hard Anal torrent

Information about the torrent Nessa Devil Hard Anal. Seeders, leechers and torrent status is updated several times per day.

If you want to download the anal torrent Nessa Devil Hard Anal you will need a torrent client.

Torrent Metasearch.

tracker
seeders
leechers
↓ torrent client compatible list

↑ hide torrent client compatible list

Help torrentproject.se to stay alive .
Add links of torrentproject.se in your favorite forum, blog, youtube, facebook, twitter etc.
reviews
140
torrent contents

Nessa.Devil.Hard.Anal torrent

Nessa.Devil.Hard.Anal
nfo.nfo103 bytes torrent search
SCREENS1_Nessa.Devil.Hard.Anal.jpg297.77 Kb torrent search
POSTER1_Nessa.Devil.Hard.Anal.jpg57.49 Kb torrent search
Nessa.Devil.Hard.Anal.wmv774.5 Mb torrent search

Sample info:
Duration: 00:23:22.12, start: 8.000000, bitrate: 4633 kb/s
Stream #0.0: Audio: wmav2, 48000 Hz, stereo, 192 kb/s
Stream #0.1: Video: wmv3, yuv420p, 1280x720, 4415 kb/s, 29.97 tb(r)
screenshots
Nessa Devil Hard Anal torrent screenshot 6A8E096C69D3EA280A0637B183C3FE50DC2C21DD Nessa Devil Hard Anal torrent screenshot 6a8e096c69d3ea280a0637b183c3fe50dc2c21dd torrent Nessa Devil Hard Anal
Nessa.Devil.Hard.Anal images are auto generated please report any inapropriate images
 

related search cloud

 devil  hard  anal  poster  screens