Torrent Search | Torrent Meta Search | Widgets

Abraham Hicks 2013 03 07 Under A Bridge DVDRip

1.08 Gb
found 1 year ago
▲ seeders: 11 ▼ leechers:0
your vote:
real:
fake:
Direct Download
THANK YOU
download torrent
  Direct Downloadsponsored

Abraham Hicks 2013 03 07 Under A Bridge DVDRip torrent

Information about the torrent Abraham Hicks 2013 03 07 Under A Bridge DVDRip. Seeders, leechers and torrent status is updated several times per day.

If you want to download the dvdrip torrent Abraham Hicks 2013 03 07 Under A Bridge DVDRip you will need a torrent client.

Torrent Metasearch.

tracker
seeders
leechers
↓ torrent client compatible list

↑ hide torrent client compatible list

Help torrentproject.se to stay alive .
Add links of torrentproject.se in your favorite forum, blog, youtube, facebook, twitter etc.
reviews
140
torrent contents

Abraham-Hicks 2013-03-07 Under A Bridge DVDRip torrent

Abraham-Hicks 2013-03-07 Under A Bridge DVDRip
2013-03-07 CMV Under A Bridge DVD.mp4194.09 Mb torrent search
2013-03-07 Under A Bridge DVD.mp4909.57 Mb torrent search
Info 2013-03-07 Under A Bridge DVD.txt6.01 Kb torrent search
Links_to_ALL_Torrents.html87.45 Kb torrent search

Sample info:
Duration: 02:52:44.27, start: 0.000000, bitrate: 736 kb/s
You Give Your Attention To What Is?
Wants To work For Abraham-Hicks Publications
Can She Allow Non-Physical To Flow Creatively?
Has Become An Abraham Inspired Psychotherapist
Is Right Time, Right Place, Right Inspiration
Relationships With Transitioned Others
Did She Allow This Really Good Thing?
Law Of Attraction - Realized
Real Reason That Children Are A "Deal Breaker"
HIV Positive Friend Wants To Stop Pills
Teachings Work, So Why Do I Forget Them?
Premise At The Basis Of Your Universe
Raton Closing
Stream #0:0	: Video: h264 (Main) (avc1 / 0x31637661), yuv420p, 640x352, 599 kb/s, 23.98 fps, 59.94 tbr, 90k tbn, 180k tbc
creation_time	: 2013-08-18 08:58:35
Stream #0:1(eng): Audio: aac (mp4a / 0x6134706D), 48000 Hz, stereo, s16, 130 kb/s
creation_time	: 2013-08-18 08:58:35
Stream #0:2	: Subtitle: mov_text (text / 0x74786574)
creation_time	: 2013-08-18 08:58:35
screenshots
Abraham Hicks 2013 03 torrent screenshot 6B733E2563EF6784CFA46CC729BAE90C0D61024C Abraham Hicks 2013 03  torrent screenshot 6b733e2563ef6784cfa46cc729bae90c0d61024c torrent Abraham Hicks 2013 03
Abraham-Hicks 2013-03-07 Under A Bridge DVDRip images are auto generated please report any inapropriate images
you may be interested in these torrents seeders leechers size found
Abraham Hicks 2013 03 07 Under A Bridge DVDvob 3 2 7.09 Gb 1 year ago

VIDEO_TS.BUP VIDEO_TS.IFO VIDEO_TS.VOB VTS_01_0.BU


Abraham Hicks 2013 03 09 Temp FLV Video+mp3 1 0 2.21 Gb 2 years ago

1of3 2013-03-09 Orlando FL.flv Abraham-Hicks 2013-03-09 Temp FLV Video+mp3 2013-03-


 

related search cloud

 under  bridge  links  torrents  info  dvdrip  abraham  hicks