Torrent Search | Torrent Meta Search | Widgets

Momo Shiina 14 White Label Part 8 IMBD 058 1080p mkv

2.5 Gb
found 5 years ago
▲ seeders: 1 ▼ leechers:1
your vote:
real:
fake:
download torrent

Momo Shiina 14 White Label Part 8 IMBD 058 1080p mkv torrent

Information about the torrent Momo Shiina 14 White Label Part 8 IMBD 058 1080p mkv. Seeders, leechers and torrent status is updated everyday.

If you want to download the hdrip torrent Momo Shiina 14 White Label Part 8 IMBD 058 1080p mkv you will need a torrent client.

Torrent Metasearch.

tracker
seeders
leechers
↓ torrent client compatible list

↑ hide torrent client compatible list

comments/reviews
anonymous 10 Dec 2015, 04:12:40
Momo Shiina
140
torrent contents

Momo Shiina (14) - White Label Part 8 [IMBD-058][1080p].mkv torrent

Momo Shiina (14) - White Label Part 8 [IMBD-058][1080p].mkv2.5 Gb torrent search

Sample info:
Duration: 01:25:06.98, start: 0.000000, bitrate: N/A
Stream #0.0(jpn): Video: h264 (High), yuv420p, 1920x1080 [PAR 1:1 DAR 16:9], 59.94 fps, 59.94 tbr, 1k tbn, 119.88 tbc (default)
Stream #0.1: Audio: aac, 48000 Hz, stereo, s16 (default)
screenshots
Images are auto generated please report any inapropriate images
 

related search cloud

 part  imbd  label  white  shiina  momo