Torrent Search | Torrent Meta Search | Widgets

City Hall La Sombra De La Corrupcion DVDRip spanish

       
699.96 Mb
found 5 years ago
▲ seeders: 0 ▼ leechers:1
your vote:
real:
fake:
download torrent

City Hall La Sombra De La Corrupcion DVDRip spanish torrent

Information about the torrent City Hall La Sombra De La Corrupcion DVDRip spanish. Seeders, leechers and torrent status is updated everyday.

If you want to download the dvdrip torrent City Hall La Sombra De La Corrupcion DVDRip spanish you will need a torrent client.

Torrent Metasearch.

Torrent verified by kat.ph.

tracker
seeders
leechers
comments/reviews
140
torrent contents

City Hall - La Sombra De La Corrupcion [dvdrip][spanish]] torrent

City Hall - La Sombra De La Corrupcion [dvdrip][spanish]]
City Hall La Sombra De La Corrupcion.avi699.96 Mb torrent search

Sample info:
Duration: 01:46:55.04, start: 0.000000, bitrate: 915 kb/s
Stream #0.0: Video: mpeg4, yuv420p, 528x292 [PAR 1:1 DAR 132:73], 25 tbr, 25 tbn, 25 tbc
Stream #0.1: Audio: mp3, 48000 Hz, 2 channels, s16, 125 kb/s
screenshots
Images are auto generated please report any inapropriate images
 

related search cloud

 corrupcion  city  sombra  hall  spanish  dvdrip