Torrent Search | Torrent Meta Search | Widgets

Andhra Girls New Naked Dance

185.16 Mb
found 1 year ago
▲ seeders: 4 ▼ leechers:1
your vote:
real:
fake:
Direct Download
THANK YOU
download torrent
  Direct Downloadsponsored

Andhra Girls New Naked Dance torrent

Information about the torrent Andhra Girls New Naked Dance. Seeders, leechers and torrent status is updated several times per day.

If you want to download the video torrent Andhra Girls New Naked Dance you will need a torrent client.

Torrent Metasearch.

tracker
seeders
leechers
↓ torrent client compatible list

↑ hide torrent client compatible list

Help torrentproject.se to stay alive .
Add links of torrentproject.se in your favorite forum, blog, youtube, facebook, twitter etc.
reviews
140
torrent contents

Andhra Girls New Naked Dance torrent

Andhra Girls New Naked Dance
Andhra Girls New Naked Dance.flv185.16 Mb torrent search

Sample info:
Duration: 00:51:31.18, start: 0.057000, bitrate: 502 kb/s
Stream #0:0: Video: h264 (High), yuv420p, 544x408 [SAR 1:1 DAR 4:3], 400 kb/s, 25 tbr, 1k tbn, 50 tbc
Stream #0:1: Audio: aac, 44100 Hz, stereo, s16, 96 kb/s
screenshots
Andhra Girls New Naked torrent screenshot 6DF466331B4AC7E7E3F2D6FDF92352EDC3FBAE8F Andhra Girls New Naked  torrent screenshot 6df466331b4ac7e7e3f2d6fdf92352edc3fbae8f torrent Andhra Girls New Naked
Andhra Girls New Naked Dance images are auto generated please report any inapropriate images
you may be interested in these torrents seeders leechers size found
Andhra Girls Mms Scandals 1 1 22.34 Mb 4 months ago

Andhra Girls Mms Scandals.flv


 

related search cloud

 dance  naked  girls  andhra