Torrent Search | Torrent Meta Search | Widgets

Andhra Girls New Naked Dance

185.16 Mb
found 3 years ago
▲ seeders: 0 ▼ leechers:1
your vote:
real:
fake:
download torrent

Andhra Girls New Naked Dance torrent

Information about the torrent Andhra Girls New Naked Dance. Seeders, leechers and torrent status is updated several times per day.

If you want to download the video torrent Andhra Girls New Naked Dance you will need a torrent client.

Torrent Metasearch.

tracker
seeders
leechers
comments/reviews
140
torrent contents

Andhra Girls New Naked Dance torrent

Andhra Girls New Naked Dance
Andhra Girls New Naked Dance.flv185.16 Mb torrent search

Sample info:
Duration: 00:51:31.18, start: 0.057000, bitrate: 502 kb/s
Stream #0:0: Video: h264 (High), yuv420p, 544x408 [SAR 1:1 DAR 4:3], 400 kb/s, 25 tbr, 1k tbn, 50 tbc
Stream #0:1: Audio: aac, 44100 Hz, stereo, s16, 96 kb/s
screenshots
Images are auto generated please report any inapropriate images
 

related search cloud

 dance  naked  girls  andhra