Torrent Search | Torrent Meta Search | Widgets

The Catch US S02E07 HDTV x264 SVA eztv mkv

282.83 Mb
found 1 month ago
▲ seeders: 140 ▼ leechers:22
your vote:
real:
fake:
download torrent

The Catch US S02E07 HDTV x264 SVA eztv mkv torrent

Information about the torrent The Catch US S02E07 HDTV x264 SVA eztv mkv. Seeders, leechers and torrent status is updated everyday.

If you want to download the tv torrent The Catch US S02E07 HDTV x264 SVA eztv mkv you will need a torrent client.

Torrent Metasearch.

tracker
seeders
leechers
↓ torrent client compatible list

↑ hide torrent client compatible list

torrent contents

The.Catch.US.S02E07.HDTV.x264-SVA[eztv].mkv torrent

The.Catch.US.S02E07.HDTV.x264-SVA[eztv].mkv282.83 Mb torrent search

Sample info:
Duration: 00:40:52.70, start: 0.000000, bitrate: 967 kb/s
Stream #0:0: Video: h264 (High), yuv420p(tv, bt709/unknown/unknown), 720x404 [SAR 1:1 DAR 180:101], 23.98 fps, 23.98 tbr, 1k tbn, 47.95 tbc (default)
Stream #0:1: Audio: aac (LC), 48000 Hz, stereo, fltp (default)
screenshots
Images are auto generated please report any inapropriate images
 

related search cloud

 eztv  hdtv  catch