Torrent Search | Torrent Meta Search | Widgets

PINOY KAMASUTRA 1

       
703.27 Mb
found 3 years ago
▲ seeders: 0 ▼ leechers:1
your vote:
real:
fake:
Direct Download
THANK YOU
download torrent
  Direct Downloadsponsored

PINOY KAMASUTRA 1 torrent

Information about the torrent PINOY KAMASUTRA 1. A torrent file stores metadata that can be used from a BitTorrent client.

If you want to download the video torrent PINOY KAMASUTRA 1 you will need a torrent client.

Torrent Metasearch.

Torrent verified by torlock.com.

tracker
seeders
leechers
↓ torrent client compatible list

↑ hide torrent client compatible list

Help torrentproject.se to stay alive .
Add links of torrentproject.se in your favorite forum, blog, youtube, facebook, twitter etc.
reviews
140
torrent contents

PINOY KAMASUTRA 1 torrent

PINOY KAMASUTRA 1
PINOY KAMASUTRA 1 Katya Santos.avi699.18 Mb torrent search
Angelykarenz LOGO.bmp3.89 Mb torrent search
h33t.com.bmp197.99 Kb torrent search
Movie Info.txt2.35 Kb torrent search
Visit All My Movies & Moretxt.108 bytes torrent search

Sample info:
Duration: 01:03:03.02, start: 0.000000, bitrate: 1550 kb/s
Stream #0.0: Video: mpeg4, yuv420p, 464x336 [PAR 1:1 DAR 29:21], 29.97 tbr, 29.97 tbn, 29.98 tbc
Stream #0.1: Audio: mp3, 48000 Hz, 2 channels, s16, 116 kb/s
screenshots
PINOY KAMASUTRA 1 torrent screenshot 70087B1A354E22D308221A3C06A724FFAAA22450 PINOY KAMASUTRA 1 torrent screenshot 70087b1a354e22d308221a3c06a724ffaaa22450 torrent PINOY KAMASUTRA 1
PINOY KAMASUTRA 1 images are auto generated please report any inapropriate images
 

related search cloud

 pinoy  kamasutra  visit  moretxt  info  movies  logo  katya  santos  angelykarenz