Torrent Search | Torrent Meta Search | Widgets

Legs Up Hose Down April O'Neil

414.29 Mb
found 4 years ago
▲ seeders: 0 ▼ leechers:1
your vote:
real:
fake:
download torrent

Legs Up Hose Down April O'Neil torrent

Information about the torrent Legs Up Hose Down April O'Neil. Seeders, leechers and torrent status is updated several times per day.

If you want to download the video torrent Legs Up Hose Down April O'Neil you will need a torrent client.

Torrent Metasearch.

No trackers with seeders or leechers have been found, this doesn't mean that the torrent Legs Up Hose Down April O'Neil is dead
comments/reviews
140
torrent contents

Legs Up Hose Down-April O'Neil.avi torrent

Legs Up Hose Down-April O'Neil.avi414.29 Mb torrent search

Sample info:
Duration: 00:43:27.67, start: 0.000000, bitrate: 1332 kb/s
Stream #0.0: Video: mpeg4 (Advanced Simple Profile), yuv420p, 624x352 [PAR 1:1 DAR 39:22], 29.97 tbr, 29.97 tbn, 29.98 tbc
Stream #0.1: Audio: ac3, 48000 Hz, stereo, s16, 192 kb/s
screenshots
Images are auto generated please report any inapropriate images
 

related search cloud

 neil  april  down  hose  legs