Torrent Search | Torrent Meta Search | Widgets

I Have A Wife Heather Summers

       
299.66 Mb
found 6 years ago
▲ seeders: 0 ▼ leechers:1
your vote:
real:
fake:
download torrent

I Have A Wife Heather Summers torrent

Information about the torrent I Have A Wife Heather Summers. Seeders, leechers and torrent status is updated several times per day.

If you want to download the video torrent I Have A Wife Heather Summers you will need a torrent client.

Torrent Metasearch.

Torrent verified by kat.ph.

comments/reviews
140
torrent contents

I Have A Wife - Heather Summers torrent

I Have A Wife - Heather Summers
I Have A Wife - Heather Summers.wmv299.66 Mb torrent search

Sample info:
Duration: 00:19:53.85, start: 5.000000, bitrate: 2105 kb/s
Stream #0.0(eng): Audio: wmav2, 48000 Hz, 2 channels, s16, 96 kb/s
Stream #0.1(eng): Video: wmv3, yuv420p, 850x480, 2000 kb/s, 29.97 tbr, 1k tbn, 1k tbc
screenshots
Images are auto generated please report any inapropriate images
 

related search cloud

 summers  heather  wife  have